Foo Fighters – One By One




[Total: 0    Average: 0/5]

Artist: Foo Fighters
Year: 2002
Genre: Rock
Notes: Discogs
Add. Notes:
Cover incl.: No
Encoder: FLAC
Bitrate: ~1100 kBit/s (44.1 kHz/16 Bit/s)
Log & Cue incl.: Yes
Size: 380,74 MB
Password: “slam” (without ” “)


All Downloads/Hosters are compatible

Download 1
Share-online.biz
KatFile.com
Rapidgator.net
Download 2
Share-online.biz
KatFile.com
Rapidgator.net

Tracklist:

1 - All My Life - 4:24
2 - Low - 4:28
3 - Have It All - 4:58
4 - Times Like These - 4:26
5 - Disenchanted Lullaby - 4:33
6 - Tired Of You - 5:11
7 - Halo - 5:06
8 - Lonely As You - 4:37
9 - Overdrive - 4:30
10 - Burn Away - 4:58
11 - Come Back - 7:50

EAC-Log, CUE-Sheed & NFO:

Click to open spoiler
Exact Audio Copy V1.0 beta 1 from 15. November 2010

EAC extraction logfile from 27. February 2011, 13:39

Foo Fighters / One By One EU (RCA 74321 96269 2)

Used drive : HP DVD Writer 1070d Adapter: 2 ID: 0

Read mode : Secure
Utilize accurate stream : Yes
Defeat audio cache : Yes
Make use of C2 pointers : No

Read offset correction : 6
Overread into Lead-In and Lead-Out : No
Fill up missing offset samples with silence : Yes
Delete leading and trailing silent blocks : No
Null samples used in CRC calculations : Yes
Used interface : Native Win32 interface for Win NT & 2000
Gap handling : Appended to previous track

Used output format : User Defined Encoder
Selected bitrate : 128 kBit/s
Quality : High
Add ID3 tag : No
Command line compressor : C:\Program Files\Exact Audio Copy\Flac\flac.exe
Additional command line options : -8 -V -T “ARTIST=%a” -T “TITLE=%t” -T “ALBUM=%g” -T “DATE=%y” -T “TRACKNUMBER=%n” -T “GENRE=%m” -T “COMMENT=EAC FLAC -8” %s

TOC of the extracted CD

Track | Start | Length | Start sector | End sector
———————————————————
1 | 0:00.00 | 4:23.42 | 0 | 19766
2 | 4:23.42 | 4:28.03 | 19767 | 39869
3 | 8:51.45 | 4:57.72 | 39870 | 62216
4 | 13:49.42 | 4:26.20 | 62217 | 82186
5 | 18:15.62 | 4:33.33 | 82187 | 102694
6 | 22:49.20 | 5:11.20 | 102695 | 126039
7 | 28:00.40 | 5:06.27 | 126040 | 149016
8 | 33:06.67 | 4:37.08 | 149017 | 169799
9 | 37:44.00 | 4:30.35 | 169800 | 190084
10 | 42:14.35 | 4:58.22 | 190085 | 212456
11 | 47:12.57 | 7:49.65 | 212457 | 247696

Track 1

Filename G:\01 – All My Life.wav

Pre-gap length 0:00:02.00

Peak level 98.8 %
Extraction speed 1.8 X
Track quality 100.0 %
Test CRC 536A8244
Copy CRC 536A8244
Accurately ripped (confidence 3) [5DAAD423]
Copy OK

Track 2

Filename G:\02 – Low.wav

Pre-gap length 0:00:00.80

Peak level 98.8 %
Extraction speed 2.1 X
Track quality 100.0 %
Test CRC FEA9D7B2
Copy CRC FEA9D7B2
Accurately ripped (confidence 3) [6C2DC593]
Copy OK

Track 3

Filename G:\03 – Have It All.wav

Peak level 98.8 %
Extraction speed 2.3 X
Track quality 100.0 %
Test CRC 41520C31
Copy CRC 41520C31
Accurately ripped (confidence 3) [5B6D755A]
Copy OK

Track 4

Filename G:\04 – Times Like These.wav

Peak level 97.6 %
Extraction speed 2.5 X
Track quality 100.0 %
Test CRC C94CAC3C
Copy CRC C94CAC3C
Accurately ripped (confidence 3) [A91FBCFF]
Copy OK

Track 5

Filename G:\05 – Disenchanted Lullaby.wav

Pre-gap length 0:00:00.62

Peak level 98.8 %
Extraction speed 2.7 X
Track quality 100.0 %
Test CRC 7AA9B97B
Copy CRC 7AA9B97B
Accurately ripped (confidence 3) [2394CAC8]
Copy OK

Track 6

Filename G:\06 – Tired Of You.wav

Pre-gap length 0:00:00.50

Peak level 98.8 %
Extraction speed 2.9 X
Track quality 100.0 %
Test CRC 34C5327D
Copy CRC 34C5327D
Accurately ripped (confidence 3) [DB1950E7]
Copy OK

Track 7

Filename G:\07 – Halo.wav

Peak level 98.8 %
Extraction speed 3.1 X
Track quality 100.0 %
Test CRC 1F088888
Copy CRC 1F088888
Accurately ripped (confidence 3) [8EB0730B]
Copy OK

Track 8

Filename G:\08 – Lonely As You.wav

Peak level 98.8 %
Extraction speed 3.2 X
Track quality 100.0 %
Test CRC 3AC10C5B
Copy CRC 3AC10C5B
Accurately ripped (confidence 3) [F693DFF3]
Copy OK

Track 9

Filename G:\09 – Overdrive.wav

Peak level 98.8 %
Extraction speed 3.3 X
Track quality 100.0 %
Test CRC F2A71BEB
Copy CRC F2A71BEB
Accurately ripped (confidence 3) [44F7D121]
Copy OK

Track 10

Filename G:\10 – Burn Away.wav

Peak level 98.8 %
Extraction speed 3.5 X
Track quality 100.0 %
Test CRC C29C9FD0
Copy CRC C29C9FD0
Accurately ripped (confidence 3) [6C780D3D]
Copy OK

Track 11

Filename G:\11 – Come Back.wav

Pre-gap length 0:00:00.69

Peak level 98.8 %
Extraction speed 3.2 X
Track quality 99.9 %
Test CRC 9768F1DA
Copy CRC 9768F1DA
Accurately ripped (confidence 3) [41301298]
Copy OK

All tracks accurately ripped

No errors occurred

End of status report

REM GENRE Rock
REM DATE 2002
REM DISCID 9F0CE60B
REM COMMENT “ExactAudioCopy v1.0b1”
PERFORMER “Foo Fighters”
TITLE “One By One EU (RCA 74321 96269 2)”
FILE “01 – All My Life.wav” WAVE
TRACK 01 AUDIO
TITLE “All My Life”
PERFORMER “Foo Fighters”
INDEX 01 00:00:00
TRACK 02 AUDIO
TITLE “Low”
PERFORMER “Foo Fighters”
INDEX 00 04:22:57
FILE “02 – Low.wav” WAVE
INDEX 01 00:00:00
FILE “03 – Have It All.wav” WAVE
TRACK 03 AUDIO
TITLE “Have It All”
PERFORMER “Foo Fighters”
INDEX 01 00:00:00
FILE “04 – Times Like These.wav” WAVE
TRACK 04 AUDIO
TITLE “Times Like These”
PERFORMER “Foo Fighters”
INDEX 01 00:00:00
TRACK 05 AUDIO
TITLE “Disenchanted Lullaby”
PERFORMER “Foo Fighters”
INDEX 00 04:25:48
FILE “05 – Disenchanted Lullaby.wav” WAVE
INDEX 01 00:00:00
TRACK 06 AUDIO
TITLE “Tired Of You”
PERFORMER “Foo Fighters”
INDEX 00 04:32:70
FILE “06 – Tired Of You.wav” WAVE
INDEX 01 00:00:00
FILE “07 – Halo.wav” WAVE
TRACK 07 AUDIO
TITLE “Halo”
PERFORMER “Foo Fighters”
INDEX 01 00:00:00
FILE “08 – Lonely As You.wav” WAVE
TRACK 08 AUDIO
TITLE “Lonely As You”
PERFORMER “Foo Fighters”
INDEX 01 00:00:00
FILE “09 – Overdrive.wav” WAVE
TRACK 09 AUDIO
TITLE “Overdrive”
PERFORMER “Foo Fighters”
INDEX 01 00:00:00
FILE “10 – Burn Away.wav” WAVE
TRACK 10 AUDIO
TITLE “Burn Away”
PERFORMER “Foo Fighters”
INDEX 01 00:00:00
TRACK 11 AUDIO
TITLE “Come Back”
PERFORMER “Foo Fighters”
INDEX 00 04:57:45
FILE “11 – Come Back.wav” WAVE
INDEX 01 00:00:00


Spread the Download

Leave a Reply

Your email address will not be published. Required fields are marked *

Enter the text from the image below
 

This site uses Akismet to reduce spam. Learn how your comment data is processed.