Foo Fighters – One By One (Special Norwegian Edition)




Artist: Foo Fighters
Year: 2002
Genre: Rock
Notes: Discogs
Add. Notes: Special Norwegian Edition
Cover incl.: No
Encoder: FLAC
Bitrate: ~1000 kBit/s (44.1 kHz/16 Bit/s)
Log & Cue incl.: Yes
Size: 593,2 MB
Password: “slam” (without ” “)


All Downloads/Hosters are compatible

Download 1
KatFile.com
Turbobit.net
FileFactory.com
Rapidgator.net
Download 2
KatFile.com
Turbobit.net
FileFactory.com
Rapidgator.net

Tracklist:

1-1 All My Life 4:23
1-2 Low 4:28
1-3 Have It All 4:57
1-4 Times Like These 4:26
1-5 Disenchanted Lullaby 4:33
1-6 Tired Of You 5:11
1-7 Halo 5:06
1-8 Lonely As You 4:37
1-9 Overdrive 4:30
1-10 Burn Away 4:58
1-11 Come Back 7:51

Bonus Disc: LIVE OSLO SPEKTRUM 4/12 2002
2-1 Snoof 4:23
2-2 Times Like These 4:32
2-3 Low 4:38
2-4 Aurora 9:06
2-5 Monkey Wrench 8:21

EAC-Log, CUE-Sheed & NFO:

Click to open spoiler
Exact Audio Copy V1.0 beta 1 from 15. November 2010

EAC extraction logfile from 14. March 2011, 14:19

Foo Fighters / One By One Special Norwegian Edition (82876 512002)

Used drive : HP DVD Writer 1070d Adapter: 2 ID: 0

Read mode : Secure
Utilize accurate stream : Yes
Defeat audio cache : Yes
Make use of C2 pointers : No

Read offset correction : 6
Overread into Lead-In and Lead-Out : No
Fill up missing offset samples with silence : Yes
Delete leading and trailing silent blocks : No
Null samples used in CRC calculations : Yes
Used interface : Native Win32 interface for Win NT & 2000
Gap handling : Appended to previous track

Used output format : User Defined Encoder
Selected bitrate : 128 kBit/s
Quality : High
Add ID3 tag : No
Command line compressor : C:\Program Files\Exact Audio Copy\Flac\flac.exe
Additional command line options : -8 -V -T “ARTIST=%a” -T “TITLE=%t” -T “ALBUM=%g” -T “DATE=%y” -T “TRACKNUMBER=%n” -T “GENRE=%m” -T “COMMENT=EAC FLAC -8” %s

TOC of the extracted CD

Track | Start | Length | Start sector | End sector
———————————————————
1 | 0:00.00 | 4:24.30 | 0 | 19829
2 | 4:24.30 | 4:28.06 | 19830 | 39935
3 | 8:52.36 | 4:57.69 | 39936 | 62279
4 | 13:50.30 | 4:26.20 | 62280 | 82249
5 | 18:16.50 | 4:33.33 | 82250 | 102757
6 | 22:50.08 | 5:11.20 | 102758 | 126102
7 | 28:01.28 | 5:06.27 | 126103 | 149079
8 | 33:07.55 | 4:37.08 | 149080 | 169862
9 | 37:44.63 | 4:30.35 | 169863 | 190147
10 | 42:15.23 | 4:58.22 | 190148 | 212519
11 | 47:13.45 | 7:53.71 | 212520 | 248065
12 | 57:39.41 | 16:18.34 | 259466 | 332849

Track 1

Filename G:\01 – All My Life.wav

Pre-gap length 0:00:02.00

Peak level 98.8 %
Extraction speed 1.8 X
Track quality 100.0 %
Test CRC 2922136A
Copy CRC 2922136A
Track not present in AccurateRip database
Copy OK

Track 2

Filename G:\02 – Low.wav

Peak level 98.8 %
Extraction speed 1.4 X
Track quality 99.9 %
Test CRC CFAF82B9
Copy CRC CFAF82B9
Track not present in AccurateRip database
Copy OK

Track 3

Filename G:\03 – Have It All.wav

Peak level 98.8 %
Extraction speed 2.2 X
Track quality 100.0 %
Test CRC 2B758865
Copy CRC 2B758865
Track not present in AccurateRip database
Copy OK

Track 4

Filename G:\04 – Times Like These.wav

Peak level 97.6 %
Extraction speed 2.3 X
Track quality 100.0 %
Test CRC C4D64728
Copy CRC 7E2864F0
Track not present in AccurateRip database
Copy OK

Track 5

Filename G:\05 – Disenchanted Lullaby.wav

Peak level 98.8 %
Extraction speed 1.3 X
Track quality 99.9 %
Test CRC 946D28A3
Copy CRC 946D28A3
Track not present in AccurateRip database
Copy OK

Track 6

Filename G:\06 – Tired Of You.wav

Peak level 98.8 %
Extraction speed 2.6 X
Track quality 100.0 %
Test CRC 24E75800
Copy CRC 24E75800
Track not present in AccurateRip database
Copy OK

Track 7

Filename G:\07 – Halo.wav

Peak level 98.8 %
Extraction speed 2.7 X
Track quality 100.0 %
Test CRC 67868D53
Copy CRC 67868D53
Track not present in AccurateRip database
Copy OK

Track 8

Filename G:\08 – Lonely As You.wav

Peak level 98.8 %
Extraction speed 2.7 X
Track quality 100.0 %
Test CRC 306266CE
Copy CRC 306266CE
Cannot be verified as accurate (confidence 1) [6E9ED72D], AccurateRip returned [EEC07B6E]
Copy OK

Track 9

Filename G:\09 – Overdrive.wav

Peak level 98.8 %
Extraction speed 3.2 X
Track quality 100.0 %
Test CRC 4393504E
Copy CRC 4393504E
Cannot be verified as accurate (confidence 1) [A1DA97B3], AccurateRip returned [3105CD58]
Copy OK

Track 10

Filename G:\10 – Burn Away.wav

Peak level 98.8 %
Extraction speed 3.4 X
Track quality 100.0 %
Test CRC 0AA9C127
Copy CRC 0AA9C127
Cannot be verified as accurate (confidence 1) [5C2660D2], AccurateRip returned [AC8DFAD0]
Copy OK

Track 11

Filename G:\11 – Come Back.wav

Peak level 98.8 %
Extraction speed 3.6 X
Track quality 100.0 %
Test CRC 87719FC5
Copy CRC 87719FC5
Cannot be verified as accurate (confidence 1) [3C59A015], AccurateRip returned [8079AE93]
Copy OK

4 track(s) could not be verified as accurate
7 track(s) not present in the AccurateRip database

No tracks could be verified as accurate
You may have a different pressing from the one(s) in the database

No errors occurred

End of status report

Exact Audio Copy V1.0 beta 1 from 15. November 2010

EAC extraction logfile from 14. March 2011, 15:01

Foo Fighters / One By One Special Norwegian Edition Bonus Disc (82876 512002)

Used drive : HP DVD Writer 1070d Adapter: 2 ID: 0

Read mode : Secure
Utilize accurate stream : Yes
Defeat audio cache : Yes
Make use of C2 pointers : No

Read offset correction : 6
Overread into Lead-In and Lead-Out : No
Fill up missing offset samples with silence : Yes
Delete leading and trailing silent blocks : No
Null samples used in CRC calculations : Yes
Used interface : Native Win32 interface for Win NT & 2000
Gap handling : Appended to previous track

Used output format : User Defined Encoder
Selected bitrate : 128 kBit/s
Quality : High
Add ID3 tag : No
Command line compressor : C:\Program Files\Exact Audio Copy\Flac\flac.exe
Additional command line options : -8 -V -T “ARTIST=%a” -T “TITLE=%t” -T “ALBUM=%g” -T “DATE=%y” -T “TRACKNUMBER=%n” -T “GENRE=%m” -T “COMMENT=EAC FLAC -8” %s

TOC of the extracted CD

Track | Start | Length | Start sector | End sector
———————————————————
1 | 0:00.00 | 4:24.05 | 0 | 19804
2 | 4:24.05 | 4:35.22 | 19805 | 40451
3 | 8:59.27 | 4:38.73 | 40452 | 61374
4 | 13:38.25 | 9:08.25 | 61375 | 102499
5 | 22:46.50 | 8:21.07 | 102500 | 140081

Track 1

Filename G:\01 – Snoof.wav

Pre-gap length 0:00:02.00

Peak level 99.9 %
Extraction speed 1.8 X
Track quality 100.0 %
Test CRC AC644107
Copy CRC AC644107
Accurately ripped (confidence 3) [3DAFC6AB]
Copy OK

Track 2

Filename G:\02 – Times Like These.wav

Pre-gap length 0:00:00.13

Peak level 100.0 %
Extraction speed 1.5 X
Track quality 99.9 %
Test CRC 68BAB1FC
Copy CRC 68BAB1FC
Accurately ripped (confidence 3) [AA7249C0]
Copy OK

Track 3

Filename G:\03 – Low.wav

Pre-gap length 0:00:02.17

Peak level 100.0 %
Extraction speed 2.3 X
Track quality 100.0 %
Test CRC DE8757A9
Copy CRC DE8757A9
Accurately ripped (confidence 3) [7077E60E]
Copy OK

Track 4

Filename G:\04 – Aurora.wav

Pre-gap length 0:00:01.13

Peak level 98.8 %
Extraction speed 2.7 X
Track quality 100.0 %
Test CRC BD6352DD
Copy CRC BD6352DD
Accurately ripped (confidence 3) [3454E72F]
Copy OK

Track 5

Filename G:\05 – Monkey Wrench.wav

Pre-gap length 0:00:01.16

Peak level 98.8 %
Extraction speed 2.2 X
Track quality 99.9 %
Test CRC 65EC3B69
Copy CRC 65EC3B69
Accurately ripped (confidence 3) [D453A5DF]
Copy OK

All tracks accurately ripped

No errors occurred

End of status report

REM GENRE Rock
REM DATE 2002
REM DISCID B611560C
REM COMMENT “ExactAudioCopy v1.0b1”
PERFORMER “Foo Fighters”
TITLE “One By One Special Norwegian Edition (82876 512002)”
FILE “01 – All My Life.wav” WAVE
TRACK 01 AUDIO
TITLE “All My Life”
PERFORMER “Foo Fighters”
INDEX 01 00:00:00
FILE “02 – Low.wav” WAVE
TRACK 02 AUDIO
TITLE “Low”
PERFORMER “Foo Fighters”
INDEX 01 00:00:00
FILE “03 – Have It All.wav” WAVE
TRACK 03 AUDIO
TITLE “Have It All”
PERFORMER “Foo Fighters”
INDEX 01 00:00:00
FILE “04 – Times Like These.wav” WAVE
TRACK 04 AUDIO
TITLE “Times Like These”
PERFORMER “Foo Fighters”
INDEX 01 00:00:00
FILE “05 – Disenchanted Lullaby.wav” WAVE
TRACK 05 AUDIO
TITLE “Disenchanted Lullaby”
PERFORMER “Foo Fighters”
INDEX 01 00:00:00
FILE “06 – Tired Of You.wav” WAVE
TRACK 06 AUDIO
TITLE “Tired Of You”
PERFORMER “Foo Fighters”
INDEX 01 00:00:00
FILE “07 – Halo.wav” WAVE
TRACK 07 AUDIO
TITLE “Halo”
PERFORMER “Foo Fighters”
INDEX 01 00:00:00
FILE “08 – Lonely As You.wav” WAVE
TRACK 08 AUDIO
TITLE “Lonely As You”
PERFORMER “Foo Fighters”
INDEX 01 00:00:00
FILE “09 – Overdrive.wav” WAVE
TRACK 09 AUDIO
TITLE “Overdrive”
PERFORMER “Foo Fighters”
INDEX 01 00:00:00
FILE “10 – Burn Away.wav” WAVE
TRACK 10 AUDIO
TITLE “Burn Away”
PERFORMER “Foo Fighters”
INDEX 01 00:00:00
FILE “11 – Come Back.wav” WAVE
TRACK 11 AUDIO
TITLE “Come Back”
PERFORMER “Foo Fighters”
INDEX 01 00:00:00
TRACK 12 MODEx/2xxx
TITLE “Track12”
PERFORMER “Foo Fighters”
INDEX 00 07:53:71

REM GENRE Rock
REM DATE 2002
REM DISCID 36074B05
REM COMMENT “ExactAudioCopy v1.0b1”
PERFORMER “Foo Fighters”
TITLE “One By One Special Norwegian Edition Bonus Disc (82876 512002)”
FILE “01 – Snoof.wav” WAVE
TRACK 01 AUDIO
TITLE “Snoof”
PERFORMER “Foo Fighters”
INDEX 01 00:00:00
TRACK 02 AUDIO
TITLE “Times Like These”
PERFORMER “Foo Fighters”
INDEX 00 04:23:70
FILE “02 – Times Like These.wav” WAVE
INDEX 01 00:00:00
TRACK 03 AUDIO
TITLE “Low”
PERFORMER “Foo Fighters”
INDEX 00 04:33:09
FILE “03 – Low.wav” WAVE
INDEX 01 00:00:00
TRACK 04 AUDIO
TITLE “Aurora”
PERFORMER “Foo Fighters”
INDEX 00 04:37:63
FILE “04 – Aurora.wav” WAVE
INDEX 01 00:00:00
TRACK 05 AUDIO
TITLE “Monkey Wrench”
PERFORMER “Foo Fighters”
INDEX 00 09:07:13
FILE “05 – Monkey Wrench.wav” WAVE
INDEX 01 00:00:00


Leave a Reply

Your email address will not be published. Required fields are marked *

This site uses Akismet to reduce spam. Learn how your comment data is processed.