Foo Fighters – One By One (Limited Japanese Edition)




Artist: Foo Fighters
Year: 2002
Genre: Rock
Notes: Discogs
Add. Notes: Limited Japanese Edition
Cover incl.: Yes
Encoder: FLAC
Bitrate: ~900 kBit/s (44.1 kHz/16 Bit/s)
Log & Cue incl.: Yes
Size: 400,5 MB
Password: “slam” (without ” “)


All Downloads/Hosters are compatible

Download 1
KatFile.com
Turbobit.net
Rapidgator.net
Usersdrive.com
Download 2
KatFile.com
Turbobit.net
Rapidgator.net
Usersdrive.com

Tracklist:

1 - All My Life - 4:22
2 - Low - 4:28
3 - Have It All - 4:58
4 - Times Like These - 4:26
5 - Disenchanted Lullaby - 4:33
6 - Tired Of You - 5:11
7 - Halo - 5:06
8 - Lonely As You - 4:37
9 - Overdrive - 4:30
10 - Burn Away - 4:57
11 - Come Back - 7:50
12 - Danny Says - 2:58

EAC-Log, CUE-Sheed & NFO:

Click to open spoiler
Exact Audio Copy V1.0 beta 1 from 15. November 2010

EAC extraction logfile from 25. February 2011, 19:35

Foo Fighters / One By One Japan (BVCM-35132)

Used drive : HP DVD Writer 1070d Adapter: 2 ID: 0

Read mode : Secure
Utilize accurate stream : Yes
Defeat audio cache : Yes
Make use of C2 pointers : No

Read offset correction : 6
Overread into Lead-In and Lead-Out : No
Fill up missing offset samples with silence : Yes
Delete leading and trailing silent blocks : No
Null samples used in CRC calculations : Yes
Used interface : Native Win32 interface for Win NT & 2000
Gap handling : Appended to previous track

Used output format : User Defined Encoder
Selected bitrate : 128 kBit/s
Quality : High
Add ID3 tag : No
Command line compressor : C:\Program Files\Exact Audio Copy\Flac\flac.exe
Additional command line options : -8 -V -T “ARTIST=%a” -T “TITLE=%t” -T “ALBUM=%g” -T “DATE=%y” -T “TRACKNUMBER=%n” -T “GENRE=%m” -T “COMMENT=EAC FLAC -8” %s

TOC of the extracted CD

Track | Start | Length | Start sector | End sector
———————————————————
1 | 0:00.00 | 4:23.73 | 0 | 19797
2 | 4:23.73 | 4:28.20 | 19798 | 39917
3 | 8:52.18 | 4:58.00 | 39918 | 62267
4 | 13:50.18 | 4:26.07 | 62268 | 82224
5 | 18:16.25 | 4:33.33 | 82225 | 102732
6 | 22:49.58 | 5:11.20 | 102733 | 126077
7 | 28:01.03 | 5:06.22 | 126078 | 149049
8 | 33:07.25 | 4:37.23 | 149050 | 169847
9 | 37:44.48 | 4:30.25 | 169848 | 190122
10 | 42:14.73 | 4:58.20 | 190123 | 212492
11 | 47:13.18 | 7:58.00 | 212493 | 248342
12 | 55:11.18 | 2:58.57 | 248343 | 261749

Track 1

Filename G:\01 – All My Life.wav

Pre-gap length 0:00:02.00

Peak level 98.8 %
Extraction speed 1.7 X
Track quality 99.9 %
Test CRC A29C8498
Copy CRC A29C8498
Accurately ripped (confidence 1) [E0E5F513]
Copy OK

Track 2

Filename G:\02 – Low.wav

Peak level 98.8 %
Extraction speed 2.1 X
Track quality 100.0 %
Test CRC E9A0082C
Copy CRC E9A0082C
Accurately ripped (confidence 1) [8B439830]
Copy OK

Track 3

Filename G:\03 – Have It All.wav

Peak level 98.8 %
Extraction speed 2.3 X
Track quality 100.0 %
Test CRC D7BD7E83
Copy CRC D7BD7E83
Accurately ripped (confidence 1) [1FA39238]
Copy OK

Track 4

Filename G:\04 – Times Like These.wav

Peak level 97.6 %
Extraction speed 2.5 X
Track quality 100.0 %
Test CRC 9D8FC76B
Copy CRC 9D8FC76B
Accurately ripped (confidence 1) [2E1D4660]
Copy OK

Track 5

Filename G:\05 – Disenchanted Lullaby.wav

Pre-gap length 0:00:00.42

Peak level 98.8 %
Extraction speed 2.7 X
Track quality 100.0 %
Test CRC 8F2263EE
Copy CRC 8F2263EE
Accurately ripped (confidence 1) [9FB9482C]
Copy OK

Track 6

Filename G:\06 – Tired Of You.wav

Peak level 98.8 %
Extraction speed 2.9 X
Track quality 100.0 %
Test CRC 19F80268
Copy CRC 19F80268
Accurately ripped (confidence 1) [AC5998B7]
Copy OK

Track 7

Filename G:\07 – Halo.wav

Peak level 98.8 %
Extraction speed 3.1 X
Track quality 100.0 %
Test CRC 3A4F228B
Copy CRC 3A4F228B
Accurately ripped (confidence 1) [6467C2E5]
Copy OK

Track 8

Filename G:\08 – Lonely As You.wav

Peak level 98.8 %
Extraction speed 3.2 X
Track quality 100.0 %
Test CRC 22A61B1A
Copy CRC 22A61B1A
Accurately ripped (confidence 1) [5C3DF8F7]
Copy OK

Track 9

Filename G:\09 – Overdrive.wav

Peak level 98.8 %
Extraction speed 3.3 X
Track quality 100.0 %
Test CRC 4E670E48
Copy CRC 4E670E48
Accurately ripped (confidence 1) [6036B672]
Copy OK

Track 10

Filename G:\10 – Burn Away.wav

Peak level 98.8 %
Extraction speed 3.5 X
Track quality 100.0 %
Test CRC E5A5F1E5
Copy CRC E5A5F1E5
Accurately ripped (confidence 1) [5F4F9392]
Copy OK

Track 11

Filename G:\11 – Come Back.wav

Peak level 98.8 %
Extraction speed 3.8 X
Track quality 100.0 %
Test CRC C600447C
Copy CRC C600447C
Accurately ripped (confidence 1) [9625836C]
Copy OK

Track 12

Filename G:\12 – Danny Says (Bonus Track).wav

Pre-gap length 0:00:08.00

Peak level 96.6 %
Extraction speed 3.5 X
Track quality 100.0 %
Test CRC 75145D25
Copy CRC 75145D25
Accurately ripped (confidence 1) [9F04258B]
Copy OK

All tracks accurately ripped

No errors occurred

End of status report

REM GENRE Rock
REM DATE 2002
REM DISCID AF0DA20C
REM COMMENT “ExactAudioCopy v1.0b1”
PERFORMER “Foo Fighters”
TITLE “One By One Japan (BVCM-35132)”
FILE “01 – All My Life.wav” WAVE
TRACK 01 AUDIO
TITLE “All My Life”
PERFORMER “Foo Fighters”
INDEX 01 00:00:00
FILE “02 – Low.wav” WAVE
TRACK 02 AUDIO
TITLE “Low”
PERFORMER “Foo Fighters”
INDEX 01 00:00:00
FILE “03 – Have It All.wav” WAVE
TRACK 03 AUDIO
TITLE “Have It All”
PERFORMER “Foo Fighters”
INDEX 01 00:00:00
FILE “04 – Times Like These.wav” WAVE
TRACK 04 AUDIO
TITLE “Times Like These”
PERFORMER “Foo Fighters”
INDEX 01 00:00:00
TRACK 05 AUDIO
TITLE “Disenchanted Lullaby”
PERFORMER “Foo Fighters”
INDEX 00 04:25:50
FILE “05 – Disenchanted Lullaby.wav” WAVE
INDEX 01 00:00:00
FILE “06 – Tired Of You.wav” WAVE
TRACK 06 AUDIO
TITLE “Tired Of You”
PERFORMER “Foo Fighters”
INDEX 01 00:00:00
FILE “07 – Halo.wav” WAVE
TRACK 07 AUDIO
TITLE “Halo”
PERFORMER “Foo Fighters”
INDEX 01 00:00:00
FILE “08 – Lonely As You.wav” WAVE
TRACK 08 AUDIO
TITLE “Lonely As You”
PERFORMER “Foo Fighters”
INDEX 01 00:00:00
FILE “09 – Overdrive.wav” WAVE
TRACK 09 AUDIO
TITLE “Overdrive”
PERFORMER “Foo Fighters”
INDEX 01 00:00:00
FILE “10 – Burn Away.wav” WAVE
TRACK 10 AUDIO
TITLE “Burn Away”
PERFORMER “Foo Fighters”
INDEX 01 00:00:00
FILE “11 – Come Back.wav” WAVE
TRACK 11 AUDIO
TITLE “Come Back”
PERFORMER “Foo Fighters”
INDEX 01 00:00:00
TRACK 12 AUDIO
TITLE “Danny Says (Bonus Track)”
PERFORMER “Foo Fighters”
INDEX 00 07:50:00
FILE “12 – Danny Says (Bonus Track).wav” WAVE
INDEX 01 00:00:00


Leave a Reply

Your email address will not be published. Required fields are marked *

This site uses Akismet to reduce spam. Learn how your comment data is processed.