Foo Fighters – One By One (Limited Edition)




Artist: Foo Fighters
Year: 2002
Genre: Rock
Notes: Discogs
Add. Notes: Limited Edition
Cover incl.: Yes
Encoder: FLAC
Bitrate: ~900 kBit/s (44.1 kHz/16 Bit/s)
Log & Cue incl.: Yes
Size: 574,82 MB
Password: “slam” (without ” “)


All Downloads/Hosters are compatible

Download 1
Turbobit.net
NitroFlare.com
KatFile.com
Rapidgator.net
Download 2
Turbobit.net
NitroFlare.com
KatFile.com
Rapidgator.net

Tracklist:

1-1	All My Life	4:23
1-2	Low	4:28
1-3	Have It All	4:57
1-4	Times Like These	4:26
1-5	Disenchanted Lullaby	4:33
1-6	Tired Of You	5:11
1-7	Halo	5:06
1-8	Lonely As You	4:37
1-9	Overdrive	4:30
1-10	Burn Away	4:58
1-11	Come Back	7:51

Bonus Disc
2-1	Walking A Line	3:57
2-2	Sister Europe	5:10
2-3	Danny Says	2:58
2-4	Life Of Illusion	3:42
2-5	For All The Cows (Live In Amsterdam)	3:34
2-6	Monkey Wrench (Live In Melbourne, Australia)
	4:03
2-7	Next Year (Live In Melbourne, Australia)
	4:12

EAC-Log, CUE-Sheed & NFO:

Click to open spoiler
Exact Audio Copy V1.0 beta 1 from 15. November 2010

EAC extraction logfile from 8. February 2011, 21:34

Foo Fighters / One By One Special Limited Edition Bonus Disc EU (RCA 82876 53311-2)

Used drive : HP DVD Writer 1070d Adapter: 2 ID: 0

Read mode : Secure
Utilize accurate stream : Yes
Defeat audio cache : Yes
Make use of C2 pointers : No

Read offset correction : 6
Overread into Lead-In and Lead-Out : No
Fill up missing offset samples with silence : Yes
Delete leading and trailing silent blocks : No
Null samples used in CRC calculations : Yes
Used interface : Native Win32 interface for Win NT & 2000
Gap handling : Appended to previous track

Used output format : User Defined Encoder
Selected bitrate : 128 kBit/s
Quality : High
Add ID3 tag : No
Command line compressor : C:\Program Files\Exact Audio Copy\Flac\flac.exe
Additional command line options : -8 -V -T “ARTIST=%a” -T “TITLE=%t” -T “ALBUM=%g” -T “DATE=%y” -T “TRACKNUMBER=%n” -T “GENRE=%m” -T “COMMENT=EAC FLAC -8” %s

TOC of the extracted CD

Track | Start | Length | Start sector | End sector
———————————————————
1 | 0:00.00 | 3:57.00 | 0 | 17774
2 | 3:57.00 | 5:10.40 | 17775 | 41064
3 | 9:07.40 | 2:58.47 | 41065 | 54461
4 | 12:06.12 | 3:42.68 | 54462 | 71179
5 | 15:49.05 | 3:34.70 | 71180 | 87299
6 | 19:24.00 | 4:03.32 | 87300 | 105556
7 | 23:27.32 | 4:12.50 | 105557 | 124506
8 | 30:12.07 | 43:45.68 | 135907 | 332849

Track 1

Filename G:\01 – Walking A Line.wav

Pre-gap length 0:00:02.00

Peak level 98.8 %
Extraction speed 1.8 X
Track quality 100.0 %
Test CRC A0C6E0C9
Copy CRC A0C6E0C9
Accurately ripped (confidence 4) [C4481943]
Copy OK

Track 2

Filename G:\02 – Sister Europe.wav

Pre-gap length 0:00:01.66

Peak level 95.9 %
Extraction speed 2.0 X
Track quality 100.0 %
Test CRC 211F76E7
Copy CRC 211F76E7
Cannot be verified as accurate (confidence 4) [AD98D352], AccurateRip returned [3A4ED487]
Copy OK

Track 3

Filename G:\03 – Danny Says.wav

Peak level 98.3 %
Extraction speed 1.6 X
Track quality 99.9 %
Test CRC EF9613AF
Copy CRC EF9613AF
Accurately ripped (confidence 5) [94C61C21]
Copy OK

Track 4

Filename G:\04 – Life Of Illusion.wav

Pre-gap length 0:00:01.06

Peak level 99.9 %
Extraction speed 2.2 X
Track quality 100.0 %
Test CRC 74E38BBF
Copy CRC 74E38BBF
Accurately ripped (confidence 3) [677090DD]
Copy OK

Track 5

Filename G:\05 – For All The Cows (Live in Amsterdam).wav

Pre-gap length 0:00:03.13

Peak level 99.8 %
Extraction speed 2.2 X
Track quality 100.0 %
Test CRC 7E7C9703
Copy CRC 7E7C9703
Accurately ripped (confidence 5) [2C5DD3BD]
Copy OK

Track 6

Filename G:\06 – Monkey Wrench (Live in Melbourne, Australia).wav

Pre-gap length 0:00:03.30

Peak level 96.4 %
Extraction speed 2.0 X
Track quality 99.9 %
Test CRC 8C6B617E
Copy CRC EF10B546
Cannot be verified as accurate (confidence 4) [451E3770], AccurateRip returned [CAE2181B]
Copy OK

Track 7

Filename G:\07 – Next Year (Live in Melbourne, Australia).wav

Pre-gap length 0:00:01.53

Peak level 97.4 %
Extraction speed 1.7 X
Track quality 99.9 %
Test CRC C314663E
Copy CRC 8E389521
Accurately ripped (confidence 3) [00F2F097]
Copy OK

5 track(s) accurately ripped
2 track(s) could not be verified as accurate

Some tracks could not be verified as accurate

No errors occurred

End of status report

Exact Audio Copy V1.0 beta 1 from 15. November 2010

EAC extraction logfile from 14. April 2011, 18:08

Foo Fighters / One By One Special Limited Edition EU (RCA 82876 53311-2)

Used drive : HP DVD Writer 1070d Adapter: 2 ID: 0

Read mode : Secure
Utilize accurate stream : Yes
Defeat audio cache : Yes
Make use of C2 pointers : No

Read offset correction : 6
Overread into Lead-In and Lead-Out : No
Fill up missing offset samples with silence : Yes
Delete leading and trailing silent blocks : No
Null samples used in CRC calculations : Yes
Used interface : Native Win32 interface for Win NT & 2000
Gap handling : Appended to previous track

Used output format : User Defined Encoder
Selected bitrate : 128 kBit/s
Quality : High
Add ID3 tag : No
Command line compressor : C:\Program Files\Exact Audio Copy\Flac\flac.exe
Additional command line options : -8 -V -T “ARTIST=%a” -T “TITLE=%t” -T “ALBUM=%g” -T “DATE=%y” -T “TRACKNUMBER=%n” -T “GENRE=%m” -T “COMMENT=EAC FLAC -8” %s

TOC of the extracted CD

Track | Start | Length | Start sector | End sector
———————————————————
1 | 0:00.00 | 4:23.42 | 0 | 19766
2 | 4:23.42 | 4:28.03 | 19767 | 39869
3 | 8:51.45 | 4:57.72 | 39870 | 62216
4 | 13:49.42 | 4:26.20 | 62217 | 82186
5 | 18:15.62 | 4:33.33 | 82187 | 102694
6 | 22:49.20 | 5:11.20 | 102695 | 126039
7 | 28:00.40 | 5:06.27 | 126040 | 149016
8 | 33:06.67 | 4:37.08 | 149017 | 169799
9 | 37:44.00 | 4:30.35 | 169800 | 190084
10 | 42:14.35 | 4:58.22 | 190085 | 212456
11 | 47:12.57 | 7:49.65 | 212457 | 247696
12 | 57:34.47 | 16:23.28 | 259097 | 332849

Track 1

Filename G:\01 – All My Life.wav

Pre-gap length 0:00:02.00

Peak level 98.8 %
Extraction speed 1.8 X
Track quality 100.0 %
Test CRC E5477061
Copy CRC E5477061
Accurately ripped (confidence 2) [084AB9AB]
Copy OK

Track 2

Filename G:\02 – Low.wav

Pre-gap length 0:00:00.82

Peak level 98.8 %
Extraction speed 2.0 X
Track quality 100.0 %
Test CRC F4C344AB
Copy CRC F4C344AB
Cannot be verified as accurate (confidence 41) [218E4A95], AccurateRip returned [E238C9C8]
Copy OK

Track 3

Filename G:\03 – Have It All.wav

Peak level 98.8 %
Extraction speed 2.1 X
Track quality 100.0 %
Test CRC 2DDFFC8F
Copy CRC 2DDFFC8F
Cannot be verified as accurate (confidence 37) [42256F3B], AccurateRip returned [AA516F3B]
Copy OK

Track 4

Filename G:\04 – Times Like These.wav

Peak level 97.6 %
Extraction speed 2.3 X
Track quality 100.0 %
Test CRC B66706E4
Copy CRC B66706E4
Accurately ripped (confidence 2) [ABCE72D0]
Copy OK

Track 5

Filename G:\05 – Disenchanted Lullaby.wav

Pre-gap length 0:00:00.62

Peak level 98.8 %
Extraction speed 2.4 X
Track quality 100.0 %
Test CRC B123CF9E
Copy CRC B123CF9E
Accurately ripped (confidence 4) [CECF5202]
Copy OK

Track 6

Filename G:\06 – Tired Of You.wav

Pre-gap length 0:00:00.50

Peak level 98.8 %
Extraction speed 2.5 X
Track quality 100.0 %
Test CRC 2AFF571C
Copy CRC 2AFF571C
Accurately ripped (confidence 41) [93BE9D0C]
Copy OK

Track 7

Filename G:\07 – Halo.wav

Peak level 98.8 %
Extraction speed 2.2 X
Track quality 99.9 %
Test CRC 1349922B
Copy CRC 1349922B
Cannot be verified as accurate (confidence 27) [63B55AF9], AccurateRip returned [76C07E53]
Copy OK

Track 8

Filename G:\08 – Lonely As You.wav

Peak level 98.8 %
Extraction speed 2.7 X
Track quality 100.0 %
Test CRC B096580E
Copy CRC B096580E
Accurately ripped (confidence 2) [7008F535]
Copy OK

Track 9

Filename G:\09 – Overdrive.wav

Peak level 98.8 %
Extraction speed 3.1 X
Track quality 100.0 %
Test CRC 59757717
Copy CRC 59757717
Accurately ripped (confidence 2) [03582D8D]
Copy OK

Track 10

Filename G:\10 – Burn Away.wav

Peak level 98.8 %
Extraction speed 3.2 X
Track quality 100.0 %
Test CRC 674B79B7
Copy CRC 674B79B7
Accurately ripped (confidence 2) [7C6B8099]
Copy OK

Track 11

Filename G:\11 – Come Back.wav

Pre-gap length 0:00:00.69

Peak level 98.8 %
Extraction speed 3.0 X
Track quality 99.9 %
Test CRC E5EC4B13
Copy CRC E5EC4B13
Cannot be verified as accurate (confidence 28) [560637B8], AccurateRip returned [C76F7CF7]
Copy OK

7 track(s) accurately ripped
4 track(s) could not be verified as accurate

Some tracks could not be verified as accurate

No errors occurred

End of status report

REM GENRE Rock
REM DATE 2002
REM DISCID B111560C
REM COMMENT “ExactAudioCopy v1.0b1”
PERFORMER “Foo Fighters”
TITLE “One By One Special Limited Edition EU (RCA 82876 53311-2)”
FILE “01 – All My Life.wav” WAVE
TRACK 01 AUDIO
TITLE “All My Life”
PERFORMER “Foo Fighters”
INDEX 01 00:00:00
TRACK 02 AUDIO
TITLE “Low”
PERFORMER “Foo Fighters”
INDEX 00 04:22:55
FILE “02 – Low.wav” WAVE
INDEX 01 00:00:00
FILE “03 – Have It All.wav” WAVE
TRACK 03 AUDIO
TITLE “Have It All”
PERFORMER “Foo Fighters”
INDEX 01 00:00:00
FILE “04 – Times Like These.wav” WAVE
TRACK 04 AUDIO
TITLE “Times Like These”
PERFORMER “Foo Fighters”
INDEX 01 00:00:00
TRACK 05 AUDIO
TITLE “Disenchanted Lullaby”
PERFORMER “Foo Fighters”
INDEX 00 04:25:48
FILE “05 – Disenchanted Lullaby.wav” WAVE
INDEX 01 00:00:00
TRACK 06 AUDIO
TITLE “Tired Of You”
PERFORMER “Foo Fighters”
INDEX 00 04:32:70
FILE “06 – Tired Of You.wav” WAVE
INDEX 01 00:00:00
FILE “07 – Halo.wav” WAVE
TRACK 07 AUDIO
TITLE “Halo”
PERFORMER “Foo Fighters”
INDEX 01 00:00:00
FILE “08 – Lonely As You.wav” WAVE
TRACK 08 AUDIO
TITLE “Lonely As You”
PERFORMER “Foo Fighters”
INDEX 01 00:00:00
FILE “09 – Overdrive.wav” WAVE
TRACK 09 AUDIO
TITLE “Overdrive”
PERFORMER “Foo Fighters”
INDEX 01 00:00:00
FILE “10 – Burn Away.wav” WAVE
TRACK 10 AUDIO
TITLE “Burn Away”
PERFORMER “Foo Fighters”
INDEX 01 00:00:00
TRACK 11 AUDIO
TITLE “Come Back”
PERFORMER “Foo Fighters”
INDEX 00 04:57:45
FILE “11 – Come Back.wav” WAVE
INDEX 01 00:00:00
TRACK 12 MODEx/2xxx
TITLE “Track12”
PERFORMER “Foo Fighters”
INDEX 00 07:49:65

REM GENRE Rock
REM DATE 2002
REM DISCID 6C115608
REM COMMENT “ExactAudioCopy v1.0b1”
PERFORMER “Foo Fighters”
TITLE “One By One Special Limited Edition Bonus Disc EU (RCA 82876 53311-2)”
FILE “01 – Walking A Line.wav” WAVE
TRACK 01 AUDIO
TITLE “Walking A Line”
PERFORMER “Foo Fighters”
INDEX 01 00:00:00
TRACK 02 AUDIO
TITLE “Sister Europe”
PERFORMER “Foo Fighters”
INDEX 00 03:55:25
FILE “02 – Sister Europe.wav” WAVE
INDEX 01 00:00:00
FILE “03 – Danny Says.wav” WAVE
TRACK 03 AUDIO
TITLE “Danny Says”
PERFORMER “Foo Fighters”
INDEX 01 00:00:00
TRACK 04 AUDIO
TITLE “Life Of Illusion”
PERFORMER “Foo Fighters”
INDEX 00 02:57:42
FILE “04 – Life Of Illusion.wav” WAVE
INDEX 01 00:00:00
TRACK 05 AUDIO
TITLE “For All The Cows (Live in Amsterdam)”
PERFORMER “Foo Fighters”
INDEX 00 03:39:58
FILE “05 – For All The Cows (Live in Amsterdam).wav” WAVE
INDEX 01 00:00:00
TRACK 06 AUDIO
TITLE “Monkey Wrench (Live in Melbourne, Australia)”
PERFORMER “Foo Fighters”
INDEX 00 03:31:47
FILE “06 – Monkey Wrench (Live in Melbourne, Australia).wav” WAVE
INDEX 01 00:00:00
TRACK 07 AUDIO
TITLE “Next Year (Live in Melbourne, Australia)”
PERFORMER “Foo Fighters”
INDEX 00 04:01:67
FILE “07 – Next Year (Live in Melbourne, Australia).wav” WAVE
INDEX 01 00:00:00
TRACK 08 MODEx/2xxx
TITLE “Track08”
PERFORMER “Foo Fighters”
INDEX 00 04:12:50


Leave a Reply

Your email address will not be published. Required fields are marked *

Enter the text from the image below
 

This site uses Akismet to reduce spam. Learn how your comment data is processed.