Foo Fighters – Medium Rare (Limited Edition)




Artist: Foo Fighters
Year: 2011
Genre: Punk
Notes: Discogs
Add. Notes: Limited Edition
Encoder: FLAC
Bitrate: ~1000 kBit/s (44.1 kHz/16 Bit/s)
Size: 315,18 MB
Password: – not required –


Crypted via FileCrypt.cc:

.

Crypted via Relink.to:

Tracklist:

1 - Band On The Run - 5:06
2 - I Feel Free - 2:56
3 - Life Of Illusion - 3:48
4 - Young Man Blues - 5:28
5 - Bad Reputation - 2:33
6 - Down In The Park - 4:07
7 - Baker Street - 5:39
8 - Danny Says - 2:59
9 - Have A Cigar - 4:15
10 - Never Talking To You Again - 1:45
11 - Gas Chamber - 1:47
12 - This Will Be Our Year - 2:44

EAC-Log, CUE-Sheed & NFO:

Click to open spoiler
Exact Audio Copy V1.0 beta 1 from 15. November 2010

EAC extraction logfile from 3. May 2011, 12:07

Foo Fighters / Medium Rare

Used drive : HL-DT-STDVDRAM GH22LS50 Adapter: 1 ID: 1

Read mode : Secure
Utilize accurate stream : Yes
Defeat audio cache : Yes
Make use of C2 pointers : No

Read offset correction : 667
Overread into Lead-In and Lead-Out : No
Fill up missing offset samples with silence : Yes
Delete leading and trailing silent blocks : No
Null samples used in CRC calculations : Yes
Used interface : Native Win32 interface for Win NT & 2000
Gap handling : Appended to previous track

Used output format : User Defined Encoder
Selected bitrate : 128 kBit/s
Quality : High
Add ID3 tag : No
Command line compressor : C:\Program Files (x86)\Exact Audio Copy\Flac\flac.exe
Additional command line options : -V -8 -T “artist=%a” -T “title=%t” -T “album=%g” -T “date=%y” -T “tracknumber=%n” -T “genre=%m” %s

TOC of the extracted CD

Track | Start | Length | Start sector | End sector
———————————————————
1 | 0:00.00 | 5:07.56 | 0 | 23080
2 | 5:07.56 | 2:56.30 | 23081 | 36310
3 | 8:04.11 | 3:39.47 | 36311 | 52782
4 | 11:43.58 | 5:45.51 | 52783 | 78708
5 | 17:29.34 | 2:34.23 | 78709 | 90281
6 | 20:03.57 | 4:08.58 | 90282 | 108939
7 | 24:12.40 | 5:38.22 | 108940 | 134311
8 | 29:50.62 | 2:59.06 | 134312 | 147742
9 | 32:49.68 | 4:03.37 | 147743 | 166004
10 | 36:53.30 | 1:53.45 | 166005 | 174524
11 | 38:47.00 | 0:57.58 | 174525 | 178857
12 | 39:44.58 | 2:33.60 | 178858 | 190392

Track 1

Filename D:\what.cd\Foo Fighters\Medium Rare\01 – Band on the Run.wav

Pre-gap length 0:00:02.00

Peak level 97.5 %
Extraction speed 1.2 X
Track quality 100.0 %
Test CRC 82DD8F17
Copy CRC 82DD8F17
Track not present in AccurateRip database
Copy OK

Track 2

Filename D:\what.cd\Foo Fighters\Medium Rare\02 – I Feel Free.wav

Pre-gap length 0:00:00.21

Peak level 100.0 %
Extraction speed 1.3 X
Track quality 100.0 %
Test CRC 934C83CF
Copy CRC 934C83CF
Track not present in AccurateRip database
Copy OK

Track 3

Filename D:\what.cd\Foo Fighters\Medium Rare\03 – Life of Illusion.wav

Pre-gap length 0:00:00.36

Peak level 98.0 %
Extraction speed 1.4 X
Track quality 100.0 %
Test CRC 8085993C
Copy CRC 8085993C
Track not present in AccurateRip database
Copy OK

Track 4

Filename D:\what.cd\Foo Fighters\Medium Rare\04 – Young Man Blues.wav

Pre-gap length 0:00:00.41

Peak level 98.8 %
Extraction speed 1.5 X
Track quality 99.9 %
Test CRC 7E83E537
Copy CRC 7E83E537
Track not present in AccurateRip database
Copy OK

Track 5

Filename D:\what.cd\Foo Fighters\Medium Rare\05 – Bad Reputation.wav

Pre-gap length 0:00:00.25

Peak level 98.8 %
Extraction speed 1.5 X
Track quality 100.0 %
Test CRC E9F8D7C8
Copy CRC E9F8D7C8
Track not present in AccurateRip database
Copy OK

Track 6

Filename D:\what.cd\Foo Fighters\Medium Rare\06 – Down In The Park.wav

Pre-gap length 0:00:00.62

Peak level 100.0 %
Extraction speed 1.8 X
Track quality 100.0 %
Test CRC 468D99F1
Copy CRC 468D99F1
Track not present in AccurateRip database
Copy OK

Track 7

Filename D:\what.cd\Foo Fighters\Medium Rare\07 – Baker Street.wav

Peak level 99.9 %
Extraction speed 1.9 X
Track quality 100.0 %
Test CRC 656C8401
Copy CRC 656C8401
Track not present in AccurateRip database
Copy OK

Track 8

Filename D:\what.cd\Foo Fighters\Medium Rare\08 – Danny Says.wav

Pre-gap length 0:00:00.33

Peak level 99.7 %
Extraction speed 1.9 X
Track quality 100.0 %
Test CRC 6D22D76A
Copy CRC 6D22D76A
Track not present in AccurateRip database
Copy OK

Track 9

Filename D:\what.cd\Foo Fighters\Medium Rare\09 – Have A Cigar.wav

Pre-gap length 0:00:00.78

Peak level 98.2 %
Extraction speed 2.1 X
Track quality 100.0 %
Test CRC 93818F81
Copy CRC 93818F81
Track not present in AccurateRip database
Copy OK

Track 10

Filename D:\what.cd\Foo Fighters\Medium Rare\10 – Never Talking To You Again.wav

Pre-gap length 0:00:00.26

Peak level 47.8 %
Extraction speed 1.8 X
Track quality 100.0 %
Test CRC 2654DD32
Copy CRC 2654DD32
Track not present in AccurateRip database
Copy OK

Track 11

Filename D:\what.cd\Foo Fighters\Medium Rare\11 – Gas Chamber.wav

Pre-gap length 0:00:00.74

Peak level 97.1 %
Extraction speed 1.0 X
Track quality 99.8 %
Test CRC 992BC5DE
Copy CRC 992BC5DE
Track not present in AccurateRip database
Copy OK

Track 12

Filename D:\what.cd\Foo Fighters\Medium Rare\12 – This Will Be Our Year.wav

Pre-gap length 0:00:03.32

Peak level 98.8 %
Extraction speed 1.7 X
Track quality 99.9 %
Test CRC 5AECB13E
Copy CRC 5AECB13E
Track not present in AccurateRip database
Copy OK

None of the tracks are present in the AccurateRip database

No errors occurred

End of status report

==== Log checksum 4316EA712F7B861E532B747602C6AE610F91C8F285160C5728668C24B4524AC4 ====

REM GENRE Rock
REM DATE 2011
REM DISCID 9B09EA0C
REM COMMENT “ExactAudioCopy v1.0b1”
PERFORMER “Foo Fighters”
TITLE “Medium Rare”
FILE “01 – Band on the Run.wav” WAVE
TRACK 01 AUDIO
TITLE “Band on the Run”
PERFORMER “Foo Fighters”
INDEX 01 00:00:00
FILE “02 – I Feel Free.wav” WAVE
TRACK 02 AUDIO
TITLE “I Feel Free”
PERFORMER “Foo Fighters”
INDEX 00 00:00:00
INDEX 01 00:00:16
FILE “03 – Life of Illusion.wav” WAVE
TRACK 03 AUDIO
TITLE “Life of Illusion”
PERFORMER “Foo Fighters”
INDEX 00 00:00:00
INDEX 01 00:00:27
FILE “04 – Young Man Blues.wav” WAVE
TRACK 04 AUDIO
TITLE “Young Man Blues”
PERFORMER “Foo Fighters”
INDEX 00 00:00:00
INDEX 01 00:00:31
FILE “05 – Bad Reputation.wav” WAVE
TRACK 05 AUDIO
TITLE “Bad Reputation”
PERFORMER “Foo Fighters”
INDEX 00 00:00:00
INDEX 01 00:00:19
FILE “06 – Down In The Park.wav” WAVE
TRACK 06 AUDIO
TITLE “Down In The Park”
PERFORMER “Foo Fighters”
INDEX 00 00:00:00
INDEX 01 00:00:47
FILE “07 – Baker Street.wav” WAVE
TRACK 07 AUDIO
TITLE “Baker Street”
PERFORMER “Foo Fighters”
INDEX 01 00:00:00
FILE “08 – Danny Says.wav” WAVE
TRACK 08 AUDIO
TITLE “Danny Says”
PERFORMER “Foo Fighters”
INDEX 00 00:00:00
INDEX 01 00:00:25
FILE “09 – Have A Cigar.wav” WAVE
TRACK 09 AUDIO
TITLE “Have A Cigar”
PERFORMER “Foo Fighters”
INDEX 00 00:00:00
INDEX 01 00:00:59
FILE “10 – Never Talking To You Again.wav” WAVE
TRACK 10 AUDIO
TITLE “Never Talking To You Again”
PERFORMER “Foo Fighters”
INDEX 00 00:00:00
INDEX 01 00:00:20
FILE “11 – Gas Chamber.wav” WAVE
TRACK 11 AUDIO
TITLE “Gas Chamber”
PERFORMER “Foo Fighters”
INDEX 00 00:00:00
INDEX 01 00:00:56
FILE “12 – This Will Be Our Year.wav” WAVE
TRACK 12 AUDIO
TITLE “This Will Be Our Year”
PERFORMER “Foo Fighters”
INDEX 00 00:00:00
INDEX 01 00:03:24

Leave a Reply

Your email address will not be published. Required fields are marked *

Enter the text from the image below
 

This site uses Akismet to reduce spam. Learn how your comment data is processed.