Foo Fighters – Greatest Hits




[Total: 0    Average: 0/5]

Artist: Foo Fighters
Year: 2009
Genre: Rock
Notes: Discogs
Add. Notes:
Cover incl.: Yes
Encoder: FLAC
Bitrate: ~900 kBit/s (44.1 kHz/16 Bit/s)
Log & Cue incl.: Yes
Size: 448,05 MB
Password: “slam” (without ” “)


All Downloads/Hosters are compatible

Download 1
Share-online.biz
KatFile.com
Rapidgator.net
Download 2
Share-online.biz
KatFile.com
Rapidgator.net

Tracklist:

1 - All My Life - 4:24
2 - Best Of You - 4:16
3 - Everlong - 4:10
4 - The Pretender - 4:27
5 - My Hero - 4:19
6 - Learn To Fly - 3:56
7 - Times Like These - 4:28
8 - Monkey Wrench - 3:53
9 - Big Me - 2:14
10 - Breakout - 3:22
11 - Long Road To Ruin - 3:48
12 - This Is A Call - 3:55
13 - Skin And Bones - 4:04
14 - Wheels - 4:38
15 - Word Forward - 3:49
16 - Everlong (Acoustic) - 4:11

EAC-Log, CUE-Sheed & NFO:

Click to open spoiler
Exact Audio Copy V1.0 beta 1 from 15. November 2010

EAC extraction logfile from 3. January 2011, 13:39

Foo Fighters / Greatest Hits US (88697-36921-2)

Used drive : HP DVD Writer 1070d Adapter: 2 ID: 0

Read mode : Secure
Utilize accurate stream : Yes
Defeat audio cache : Yes
Make use of C2 pointers : No

Read offset correction : 6
Overread into Lead-In and Lead-Out : No
Fill up missing offset samples with silence : Yes
Delete leading and trailing silent blocks : No
Null samples used in CRC calculations : Yes
Used interface : Native Win32 interface for Win NT & 2000
Gap handling : Appended to previous track

Used output format : User Defined Encoder
Selected bitrate : 896 kBit/s
Quality : High
Add ID3 tag : No
Command line compressor : C:\Program Files\Exact Audio Copy\flac.exe
Additional command line options : -8 -V -T “ARTIST=%a” -T “TITLE=%t” -T “ALBUM=%g” -T “DATE=%y” -T “TRACKNUMBER=%n” -T “GENRE=%m” -T “COMMENT=EAC FLAC -8” %s

TOC of the extracted CD

Track | Start | Length | Start sector | End sector
———————————————————
1 | 0:00.00 | 4:24.16 | 0 | 19815
2 | 4:24.16 | 4:16.08 | 19816 | 39023
3 | 8:40.24 | 4:10.07 | 39024 | 57780
4 | 12:50.31 | 4:27.27 | 57781 | 77832
5 | 17:17.58 | 4:18.73 | 77833 | 97255
6 | 21:36.56 | 3:56.20 | 97256 | 114975
7 | 25:33.01 | 4:27.73 | 114976 | 135073
8 | 30:00.74 | 3:52.60 | 135074 | 152533
9 | 33:53.59 | 2:14.23 | 152534 | 162606
10 | 36:08.07 | 3:21.61 | 162607 | 177742
11 | 39:29.68 | 3:48.28 | 177743 | 194870
12 | 43:18.21 | 3:54.55 | 194871 | 212475
13 | 47:13.01 | 4:03.50 | 212476 | 230750
14 | 51:16.51 | 4:38.16 | 230751 | 251616
15 | 55:54.67 | 3:48.44 | 251617 | 268760
16 | 59:43.36 | 4:10.68 | 268761 | 287578

Track 1

Filename G:\01 – All My Life.wav

Pre-gap length 0:00:02.00

Peak level 98.8 %
Extraction speed 2.0 X
Track quality 100.0 %
Test CRC EA25515A
Copy CRC EA25515A
Accurately ripped (confidence 3) [1EC488EB]
Copy OK

Track 2

Filename G:\02 – Best Of You.wav

Pre-gap length 0:00:00.65

Peak level 100.0 %
Extraction speed 2.3 X
Track quality 100.0 %
Test CRC 28C2D0E2
Copy CRC 28C2D0E2
Accurately ripped (confidence 3) [033088C7]
Copy OK

Track 3

Filename G:\03 – Everlong.wav

Pre-gap length 0:00:01.13

Peak level 100.0 %
Extraction speed 2.4 X
Track quality 100.0 %
Test CRC 7D472FA3
Copy CRC 7D472FA3
Accurately ripped (confidence 3) [71D6184B]
Copy OK

Track 4

Filename G:\04 – The Pretender.wav

Pre-gap length 0:00:00.10

Peak level 91.5 %
Extraction speed 2.6 X
Track quality 100.0 %
Test CRC 5A1F759F
Copy CRC 5A1F759F
Accurately ripped (confidence 3) [E611E07F]
Copy OK

Track 5

Filename G:\05 – My Hero.wav

Peak level 100.0 %
Extraction speed 2.3 X
Track quality 99.9 %
Test CRC 08F2F95E
Copy CRC 08F2F95E
Accurately ripped (confidence 3) [C6BF2BAD]
Copy OK

Track 6

Filename G:\06 – Learn To Fly.wav

Peak level 99.5 %
Extraction speed 2.9 X
Track quality 100.0 %
Test CRC 1117DEFF
Copy CRC 1117DEFF
Accurately ripped (confidence 3) [149B90A3]
Copy OK

Track 7

Filename G:\07 – Times Like These.wav

Pre-gap length 0:00:01.46

Peak level 97.6 %
Extraction speed 2.5 X
Track quality 99.9 %
Test CRC 2D9636AF
Copy CRC 2D9636AF
Accurately ripped (confidence 3) [C8F135D8]
Copy OK

Track 8

Filename G:\08 – Monkey Wrench.wav

Peak level 99.9 %
Extraction speed 3.1 X
Track quality 100.0 %
Test CRC 506BC822
Copy CRC 506BC822
Accurately ripped (confidence 3) [9B7FFAEA]
Copy OK

Track 9

Filename G:\09 – Big Me.wav

Pre-gap length 0:00:01.97

Peak level 99.9 %
Extraction speed 2.9 X
Track quality 100.0 %
Test CRC EE3D9CBB
Copy CRC EE3D9CBB
Accurately ripped (confidence 3) [820CAB68]
Copy OK

Track 10

Filename G:\10 – Breakout.wav

Pre-gap length 0:00:01.97

Peak level 97.7 %
Extraction speed 3.3 X
Track quality 100.0 %
Test CRC E5C4AA7A
Copy CRC E5C4AA7A
Accurately ripped (confidence 3) [DD94ACB9]
Copy OK

Track 11

Filename G:\11 – Long Road To Ruin.wav

Pre-gap length 0:00:00.98

Peak level 87.3 %
Extraction speed 3.4 X
Track quality 100.0 %
Test CRC 057C0769
Copy CRC 057C0769
Accurately ripped (confidence 3) [7254482E]
Copy OK

Track 12

Filename G:\12 – This Is A Call.wav

Pre-gap length 0:00:00.02

Peak level 99.9 %
Extraction speed 3.6 X
Track quality 100.0 %
Test CRC 565DC754
Copy CRC 565DC754
Accurately ripped (confidence 3) [925B9C08]
Copy OK

Track 13

Filename G:\13 – Skin And Bones.wav

Pre-gap length 0:00:01.66

Peak level 100.0 %
Extraction speed 3.7 X
Track quality 100.0 %
Test CRC 42E35224
Copy CRC 42E35224
Accurately ripped (confidence 3) [31E2C9BA]
Copy OK

Track 14

Filename G:\14 – Wheels.wav

Pre-gap length 0:00:01.29

Peak level 99.9 %
Extraction speed 3.9 X
Track quality 100.0 %
Test CRC D89F6D0E
Copy CRC D89F6D0E
Accurately ripped (confidence 3) [3C1D5BCB]
Copy OK

Track 15

Filename G:\15 – Word Forward.wav

Peak level 98.8 %
Extraction speed 3.9 X
Track quality 100.0 %
Test CRC A938AC29
Copy CRC A938AC29
Accurately ripped (confidence 3) [213FC657]
Copy OK

Track 16

Filename G:\16 – Everlong (Acoustic).wav

Pre-gap length 0:00:01.94

Peak level 79.4 %
Extraction speed 4.0 X
Track quality 100.0 %
Test CRC AA83885E
Copy CRC AA83885E
Accurately ripped (confidence 2) [7CC81C0F]
Copy OK

All tracks accurately ripped

No errors occurred

End of status report

REM GENRE Rock
REM DATE 2009
REM DISCID D60EFA10
REM COMMENT “ExactAudioCopy v1.0b1”
PERFORMER “Foo Fighters”
TITLE “Greatest Hits US (88697-36921-2)”
FILE “01 – All My Life.wav” WAVE
TRACK 01 AUDIO
TITLE “All My Life”
PERFORMER “Foo Fighters”
INDEX 01 00:00:00
TRACK 02 AUDIO
TITLE “Best Of You”
PERFORMER “Foo Fighters”
INDEX 00 04:23:42
FILE “02 – Best Of You.wav” WAVE
INDEX 01 00:00:00
TRACK 03 AUDIO
TITLE “Everlong”
PERFORMER “Foo Fighters”
INDEX 00 04:14:73
FILE “03 – Everlong.wav” WAVE
INDEX 01 00:00:00
TRACK 04 AUDIO
TITLE “The Pretender”
PERFORMER “Foo Fighters”
INDEX 00 04:09:74
FILE “04 – The Pretender.wav” WAVE
INDEX 01 00:00:00
FILE “05 – My Hero.wav” WAVE
TRACK 05 AUDIO
TITLE “My Hero”
PERFORMER “Foo Fighters”
INDEX 01 00:00:00
FILE “06 – Learn To Fly.wav” WAVE
TRACK 06 AUDIO
TITLE “Learn To Fly”
PERFORMER “Foo Fighters”
INDEX 01 00:00:00
TRACK 07 AUDIO
TITLE “Times Like These”
PERFORMER “Foo Fighters”
INDEX 00 03:54:60
FILE “07 – Times Like These.wav” WAVE
INDEX 01 00:00:00
FILE “08 – Monkey Wrench.wav” WAVE
TRACK 08 AUDIO
TITLE “Monkey Wrench”
PERFORMER “Foo Fighters”
INDEX 01 00:00:00
TRACK 09 AUDIO
TITLE “Big Me”
PERFORMER “Foo Fighters”
INDEX 00 03:50:62
FILE “09 – Big Me.wav” WAVE
INDEX 01 00:00:00
TRACK 10 AUDIO
TITLE “Breakout”
PERFORMER “Foo Fighters”
INDEX 00 02:12:25
FILE “10 – Breakout.wav” WAVE
INDEX 01 00:00:00
TRACK 11 AUDIO
TITLE “Long Road To Ruin”
PERFORMER “Foo Fighters”
INDEX 00 03:20:62
FILE “11 – Long Road To Ruin.wav” WAVE
INDEX 01 00:00:00
TRACK 12 AUDIO
TITLE “This Is A Call”
PERFORMER “Foo Fighters”
INDEX 00 03:48:26
FILE “12 – This Is A Call.wav” WAVE
INDEX 01 00:00:00
TRACK 13 AUDIO
TITLE “Skin And Bones”
PERFORMER “Foo Fighters”
INDEX 00 03:53:05
FILE “13 – Skin And Bones.wav” WAVE
INDEX 01 00:00:00
TRACK 14 AUDIO
TITLE “Wheels”
PERFORMER “Foo Fighters”
INDEX 00 04:02:28
FILE “14 – Wheels.wav” WAVE
INDEX 01 00:00:00
FILE “15 – Word Forward.wav” WAVE
TRACK 15 AUDIO
TITLE “Word Forward”
PERFORMER “Foo Fighters”
INDEX 01 00:00:00
TRACK 16 AUDIO
TITLE “Everlong (Acoustic)”
PERFORMER “Foo Fighters”
INDEX 00 03:46:48
FILE “16 – Everlong (Acoustic).wav” WAVE
INDEX 01 00:00:00


Spread the Download

Leave a Reply

Your email address will not be published. Required fields are marked *

Enter the text from the image below
 

This site uses Akismet to reduce spam. Learn how your comment data is processed.