Foo Fighters – Greatest Hits (Japanese Edition)




Artist: Foo Fighters
Year: 2009
Genre: Rock
Notes: Discogs
Add. Notes: Japanese Edition
Cover incl.: Yes
Encoder: FLAC
Bitrate: ~1000 kBit/s (44.1 kHz/16 Bit/s)
Log & Cue incl.: Yes
Size: 487,4 MB
Password: “slam” (without ” “)


All Downloads/Hosters are compatible

Download 1
KatFile.com
Turbobit.net
FileFactory.com
Rapidgator.net
Download 2
KatFile.com
Turbobit.net
FileFactory.com
Rapidgator.net

Tracklist:

1 All My Life 
2 Best Of You 
3 Everlong 
4 The Pretender 
5 My Hero 
6 Learn To Fly 
7 Times Like These 
8 Monkey Wrench 
9 Big Me 
10 Breakout 
11 Long Road To Ruin 
12 This Is A Call 
13 Skin And Bones 
14 Wheels 
15 Word Forward 
16 Everlong (Acoustic) 
Japan Bonus Track:
17 Band On The Run

EAC-Log, CUE-Sheed & NFO:

Click to open spoiler
Exact Audio Copy V1.0 beta 3 from 29. August 2011

EAC extraction logfile from 11. July 2012, 11:34

Foo Fighters / Greatest Hits (Japan, BVCP 40174)

Used drive : HP DVD Writer 1070d Adapter: 3 ID: 0

Read mode : Secure
Utilize accurate stream : Yes
Defeat audio cache : Yes
Make use of C2 pointers : No

Read offset correction : 6
Overread into Lead-In and Lead-Out : No
Fill up missing offset samples with silence : Yes
Delete leading and trailing silent blocks : No
Null samples used in CRC calculations : Yes
Used interface : Native Win32 interface for Win NT & 2000
Gap handling : Appended to previous track

Used output format : User Defined Encoder
Selected bitrate : 192 kBit/s
Quality : High
Add ID3 tag : No
Command line compressor : C:\Program Files (x86)\FLAC\flac.exe
Additional command line options : -T “artist=%artist%” -T “title=%title%” -T “album=%albumtitle%” -T “date=%year%” -T “tracknumber=%tracknr%” -T “genre=%genre%” -5 %source%

TOC of the extracted CD

Track | Start | Length | Start sector | End sector
———————————————————
1 | 0:00.00 | 4:23.74 | 0 | 19798
2 | 4:23.74 | 4:16.08 | 19799 | 39006
3 | 8:40.07 | 4:10.06 | 39007 | 57762
4 | 12:50.13 | 4:27.29 | 57763 | 77816
5 | 17:17.42 | 4:19.14 | 77817 | 97255
6 | 21:36.56 | 3:56.12 | 97256 | 114967
7 | 25:32.68 | 4:27.72 | 114968 | 135064
8 | 30:00.65 | 3:52.56 | 135065 | 152520
9 | 33:53.46 | 2:14.28 | 152521 | 162598
10 | 36:07.74 | 3:21.69 | 162599 | 177742
11 | 39:29.68 | 3:48.13 | 177743 | 194855
12 | 43:18.06 | 3:54.52 | 194856 | 212457
13 | 47:12.58 | 4:03.64 | 212458 | 230746
14 | 51:16.47 | 4:38.08 | 230747 | 251604
15 | 55:54.55 | 3:48.40 | 251605 | 268744
16 | 59:43.20 | 4:41.09 | 268745 | 289828
17 | 64:24.29 | 5:07.51 | 289829 | 312904

Track 1

Filename G:\01 – All My Life.wav

Pre-gap length 0:00:02.00

Peak level 98.8 %
Extraction speed 2.0 X
Track quality 100.0 %
Test CRC A8B620F9
Copy CRC A8B620F9
Accurately ripped (confidence 6) [26F0C71D] (AR v1)
Copy OK

Track 2

Filename G:\02 – Best Of You.wav

Peak level 100.0 %
Extraction speed 2.3 X
Track quality 100.0 %
Test CRC 795489F1
Copy CRC 795489F1
Accurately ripped (confidence 6) [878B2F75] (AR v1)
Copy OK

Track 3

Filename G:\03 – Everlong.wav

Pre-gap length 0:00:00.66

Peak level 100.0 %
Extraction speed 2.4 X
Track quality 100.0 %
Test CRC 318CB6BA
Copy CRC 318CB6BA
Accurately ripped (confidence 6) [BD571830] (AR v1)
Copy OK

Track 4

Filename G:\04 – The Pretender.wav

Peak level 91.5 %
Extraction speed 2.6 X
Track quality 100.0 %
Test CRC AF21599E
Copy CRC AF21599E
Accurately ripped (confidence 6) [06B80D30] (AR v1)
Copy OK

Track 5

Filename G:\05 – My Hero.wav

Peak level 100.0 %
Extraction speed 2.8 X
Track quality 100.0 %
Test CRC 9B4D4787
Copy CRC 9B4D4787
Accurately ripped (confidence 6) [469958C7] (AR v1)
Copy OK

Track 6

Filename G:\06 – Learn To Fly.wav

Peak level 99.5 %
Extraction speed 3.0 X
Track quality 100.0 %
Test CRC A5C78FD1
Copy CRC A5C78FD1
Accurately ripped (confidence 6) [D4774CA8] (AR v1)
Copy OK

Track 7

Filename G:\07 – Times Like These.wav

Pre-gap length 0:00:01.25

Peak level 97.6 %
Extraction speed 3.1 X
Track quality 100.0 %
Test CRC BE85FF26
Copy CRC BE85FF26
Accurately ripped (confidence 6) [6CEFAF7A] (AR v1)
Copy OK

Track 8

Filename G:\08 – Monkey Wrench.wav

Peak level 100.0 %
Extraction speed 2.5 X
Track quality 99.9 %
Test CRC FCD0E7C0
Copy CRC FCD0E7C0
Accurately ripped (confidence 6) [981FEFB8] (AR v1)
Copy OK

Track 9

Filename G:\09 – Big Me.wav

Pre-gap length 0:00:01.51

Peak level 100.0 %
Extraction speed 3.0 X
Track quality 100.0 %
Test CRC DB5E6FAD
Copy CRC DB5E6FAD
Accurately ripped (confidence 6) [71EE9884] (AR v1)
Copy OK

Track 10

Filename G:\10 – Breakout.wav

Pre-gap length 0:00:01.63

Peak level 97.7 %
Extraction speed 3.3 X
Track quality 100.0 %
Test CRC B038E586
Copy CRC B038E586
Accurately ripped (confidence 6) [A0C4B0F7] (AR v1)
Copy OK

Track 11

Filename G:\11 – Long Road To Ruin.wav

Pre-gap length 0:00:00.72

Peak level 87.4 %
Extraction speed 3.5 X
Track quality 100.0 %
Test CRC F44EB9D3
Copy CRC F44EB9D3
Accurately ripped (confidence 6) [A5A1EAEE] (AR v1)
Copy OK

Track 12

Filename G:\12 – This Is A Call.wav

Peak level 100.0 %
Extraction speed 2.7 X
Track quality 99.9 %
Test CRC FD30BB89
Copy CRC FD30BB89
Accurately ripped (confidence 6) [257E04D8] (AR v1)
Copy OK

Track 13

Filename G:\13 – Skin And Bones.wav

Pre-gap length 0:00:01.14

Peak level 100.0 %
Extraction speed 3.8 X
Track quality 100.0 %
Test CRC A467F66F
Copy CRC A467F66F
Accurately ripped (confidence 6) [55731524] (AR v1)
Copy OK

Track 14

Filename G:\14 – Wheels.wav

Pre-gap length 0:00:01.16

Peak level 99.9 %
Extraction speed 4.0 X
Track quality 100.0 %
Test CRC 6E273237
Copy CRC 6E273237
Accurately ripped (confidence 6) [28F92E26] (AR v1)
Copy OK

Track 15

Filename G:\15 – Word Forward.wav

Peak level 98.8 %
Extraction speed 4.0 X
Track quality 100.0 %
Test CRC B7C0AA04
Copy CRC B7C0AA04
Accurately ripped (confidence 6) [F888E451] (AR v1)
Copy OK

Track 16

Filename G:\16 – Everlong (Acoustic).wav

Pre-gap length 0:00:01.53

Peak level 79.4 %
Extraction speed 4.2 X
Track quality 100.0 %
Test CRC 3D560056
Copy CRC 3D560056
Accurately ripped (confidence 6) [7533AAA2] (AR v1)
Copy OK

Track 17

Filename G:\17 – Band On The Run (Bonus Track).wav

Pre-gap length 0:00:29.73

Peak level 98.8 %
Extraction speed 4.3 X
Track quality 100.0 %
Test CRC BDE88A29
Copy CRC BDE88A29
Accurately ripped (confidence 6) [109141AE] (AR v1)
Copy OK

All tracks accurately ripped

No errors occurred

End of status report

==== Log checksum 95BCD1C992D23646A1C682AFF511C7CD6C65FEB573B1EFCD0D1CFF2A2DEE736A ====

REM GENRE Rock
REM DATE 2009
REM DISCID F2104C11
REM COMMENT “ExactAudioCopy v1.0b3”
PERFORMER “Foo Fighters”
TITLE “Greatest Hits (Japan, BVCP 40174)”
FILE “01 – All My Life.wav” WAVE
TRACK 01 AUDIO
TITLE “All My Life”
PERFORMER “Foo Fighters”
ISRC USRW30200001
INDEX 01 00:00:00
FILE “02 – Best Of You.wav” WAVE
TRACK 02 AUDIO
TITLE “Best Of You”
PERFORMER “Foo Fighters”
ISRC USRW30500001
INDEX 01 00:00:00
TRACK 03 AUDIO
TITLE “Everlong”
PERFORMER “Foo Fighters”
ISRC USRW29600011
INDEX 00 04:15:17
FILE “03 – Everlong.wav” WAVE
INDEX 01 00:00:00
FILE “04 – The Pretender.wav” WAVE
TRACK 04 AUDIO
TITLE “The Pretender”
PERFORMER “Foo Fighters”
ISRC USRW29600011
INDEX 01 00:00:00
FILE “05 – My Hero.wav” WAVE
TRACK 05 AUDIO
TITLE “My Hero”
PERFORMER “Foo Fighters”
ISRC USRW29600007
INDEX 01 00:00:00
FILE “06 – Learn To Fly.wav” WAVE
TRACK 06 AUDIO
TITLE “Learn To Fly”
PERFORMER “Foo Fighters”
ISRC USRW29600007
INDEX 01 00:00:00
TRACK 07 AUDIO
TITLE “Times Like These”
PERFORMER “Foo Fighters”
ISRC USRW30200005
INDEX 00 03:54:62
FILE “07 – Times Like These.wav” WAVE
INDEX 01 00:00:00
FILE “08 – Monkey Wrench.wav” WAVE
TRACK 08 AUDIO
TITLE “Monkey Wrench”
PERFORMER “Foo Fighters”
ISRC USRW29600001
INDEX 01 00:00:00
TRACK 09 AUDIO
TITLE “Big Me”
PERFORMER “Foo Fighters”
ISRC USRW29500002
INDEX 00 03:51:05
FILE “09 – Big Me.wav” WAVE
INDEX 01 00:00:00
TRACK 10 AUDIO
TITLE “Breakout”
PERFORMER “Foo Fighters”
ISRC USRW39900004
INDEX 00 02:12:40
FILE “10 – Breakout.wav” WAVE
INDEX 01 00:00:00
TRACK 11 AUDIO
TITLE “Long Road To Ruin”
PERFORMER “Foo Fighters”
ISRC USRW30700010
INDEX 00 03:20:72
FILE “11 – Long Road To Ruin.wav” WAVE
INDEX 01 00:00:00
FILE “12 – This Is A Call.wav” WAVE
TRACK 12 AUDIO
TITLE “This Is A Call”
PERFORMER “Foo Fighters”
ISRC USRW29500014
INDEX 01 00:00:00
TRACK 13 AUDIO
TITLE “Skin And Bones”
PERFORMER “Foo Fighters”
ISRC USRW30600044
INDEX 00 03:53:38
FILE “13 – Skin And Bones.wav” WAVE
INDEX 01 00:00:00
TRACK 14 AUDIO
TITLE “Wheels”
PERFORMER “Foo Fighters”
ISRC USRC10900528
INDEX 00 04:02:48
FILE “14 – Wheels.wav” WAVE
INDEX 01 00:00:00
FILE “15 – Word Forward.wav” WAVE
TRACK 15 AUDIO
TITLE “Word Forward”
PERFORMER “Foo Fighters”
ISRC USRW30900001
INDEX 01 00:00:00
TRACK 16 AUDIO
TITLE “Everlong (Acoustic)”
PERFORMER “Foo Fighters”
ISRC USRW30900002
INDEX 00 03:46:62
FILE “16 – Everlong (Acoustic).wav” WAVE
INDEX 01 00:00:00
TRACK 17 AUDIO
TITLE “Band On The Run (Bonus Track)”
PERFORMER “Foo Fighters”
ISRC USRW30700025
INDEX 00 04:11:11
FILE “17 – Band On The Run (Bonus Track).wav” WAVE
INDEX 01 00:00:00


Leave a Reply

Your email address will not be published. Required fields are marked *

This site uses Akismet to reduce spam. Learn how your comment data is processed.