Foo Fighters – Foo Fighters




Artist: Foo Fighters
Year: 1995
Genre: Rock
Notes: Discogs
Add. Notes:
Cover incl.: Yes
Encoder: FLAC
Bitrate: ~900 kBit/s (44.1 kHz/16 Bit/s)
Log & Cue incl.: Yes
Size: 303,51 MB
Password: “slam” (without ” “)


All Downloads/Hosters are compatible

Download 1
NitroFlare.com
KatFile.com
Turbobit.net
Rapidgator.net
UploadRar.com
Download 2
NitroFlare.com
KatFile.com
Turbobit.net
Rapidgator.net
UploadRar.com

Tracklist:

1 - This Is A Call - 3:53
2 - I'll Stick Around - 3:53
3 - Big Me - 2:12
4 - Alone + Easy Target - 4:05
5 - Good Grief - 4:01
6 - Floaty - 4:30
7 - Weenie Beenie - 2:45
8 - Oh, George - 3:00
9 - For All The Cows - 3:30
10 - X-Static - 4:13
11 - Wattershed - 2:15
12 - Exhausted - 5:47

EAC-Log, CUE-Sheed & NFO:

Click to open spoiler
Exact Audio Copy V1.0 beta 1 from 15. November 2010

EAC extraction logfile from 3. January 2011, 15:09

Foo Fighters / Foo Fighters EU (RCA 82876 55496 2)

Used drive : HP DVD Writer 1070d Adapter: 2 ID: 0

Read mode : Secure
Utilize accurate stream : Yes
Defeat audio cache : Yes
Make use of C2 pointers : No

Read offset correction : 6
Overread into Lead-In and Lead-Out : No
Fill up missing offset samples with silence : Yes
Delete leading and trailing silent blocks : No
Null samples used in CRC calculations : Yes
Used interface : Native Win32 interface for Win NT & 2000
Gap handling : Appended to previous track

Used output format : User Defined Encoder
Selected bitrate : 896 kBit/s
Quality : High
Add ID3 tag : No
Command line compressor : C:\Program Files\Exact Audio Copy\flac.exe
Additional command line options : -8 -V -T “ARTIST=%a” -T “TITLE=%t” -T “ALBUM=%g” -T “DATE=%y” -T “TRACKNUMBER=%n” -T “GENRE=%m” -T “COMMENT=EAC FLAC -8” %s

TOC of the extracted CD

Track | Start | Length | Start sector | End sector
———————————————————
1 | 0:00.00 | 3:53.27 | 0 | 17501
2 | 3:53.27 | 3:53.08 | 17502 | 34984
3 | 7:46.35 | 2:12.45 | 34985 | 44929
4 | 9:59.05 | 4:05.25 | 44930 | 63329
5 | 14:04.30 | 4:01.17 | 63330 | 81421
6 | 18:05.47 | 4:30.05 | 81422 | 101676
7 | 22:35.52 | 2:45.63 | 101677 | 114114
8 | 25:21.40 | 3:00.42 | 114115 | 127656
9 | 28:22.07 | 3:30.05 | 127657 | 143411
10 | 31:52.12 | 4:13.08 | 143412 | 162394
11 | 36:05.20 | 2:15.70 | 162395 | 172589
12 | 38:21.15 | 5:47.02 | 172590 | 198616

Track 1

Filename G:\01 – This Is A Call.wav

Pre-gap length 0:00:02.00

Peak level 98.6 %
Extraction speed 1.8 X
Track quality 100.0 %
Test CRC 67C16188
Copy CRC 67C16188
Accurately ripped (confidence 107) [CB4F5C0B]
Copy OK

Track 2

Filename G:\02 – I’ll Stick Around.wav

Peak level 100.0 %
Extraction speed 1.7 X
Track quality 99.9 %
Test CRC 2CD02205
Copy CRC 2CD02205
Accurately ripped (confidence 106) [939FC1CC]
Copy OK

Track 3

Filename G:\03 – Big Me.wav

Pre-gap length 0:00:00.57

Peak level 87.9 %
Extraction speed 1.9 X
Track quality 100.0 %
Test CRC 805000F4
Copy CRC 805000F4
Accurately ripped (confidence 106) [453C0FF4]
Copy OK

Track 4

Filename G:\04 – Alone+Easy Target.wav

Pre-gap length 0:00:00.33

Peak level 98.5 %
Extraction speed 2.3 X
Track quality 100.0 %
Test CRC 4FBE7499
Copy CRC 4FBE7499
Accurately ripped (confidence 108) [81002CF4]
Copy OK

Track 5

Filename G:\05 – Good Grief.wav

Peak level 98.5 %
Extraction speed 2.5 X
Track quality 100.0 %
Test CRC E8D7D1B5
Copy CRC E8D7D1B5
Accurately ripped (confidence 108) [C11F3ED9]
Copy OK

Track 6

Filename G:\06 – Floaty.wav

Peak level 93.3 %
Extraction speed 2.7 X
Track quality 100.0 %
Test CRC 4796F2F6
Copy CRC 4796F2F6
Accurately ripped (confidence 107) [67FC73AC]
Copy OK

Track 7

Filename G:\07 – Weenie Beenie.wav

Pre-gap length 0:00:00.80

Peak level 98.4 %
Extraction speed 2.6 X
Track quality 100.0 %
Test CRC FD41EC1E
Copy CRC FD41EC1E
Accurately ripped (confidence 107) [1286C631]
Copy OK

Track 8

Filename G:\08 – Oh, George.wav

Pre-gap length 0:00:01.24

Peak level 91.8 %
Extraction speed 2.7 X
Track quality 100.0 %
Test CRC 9380432B
Copy CRC 9380432B
Accurately ripped (confidence 109) [7C278B28]
Copy OK

Track 9

Filename G:\09 – For All The Cows.wav

Peak level 98.6 %
Extraction speed 2.9 X
Track quality 100.0 %
Test CRC ADBBB5AB
Copy CRC ADBBB5AB
Accurately ripped (confidence 104) [02442A7A]
Copy OK

Track 10

Filename G:\10 – X-Static.wav

Pre-gap length 0:00:00.82

Peak level 93.4 %
Extraction speed 3.1 X
Track quality 100.0 %
Test CRC 2E6FDA38
Copy CRC 2E6FDA38
Accurately ripped (confidence 107) [3389C546]
Copy OK

Track 11

Filename G:\11 – Wattershed.wav

Pre-gap length 0:00:00.44

Peak level 98.0 %
Extraction speed 2.9 X
Track quality 100.0 %
Test CRC 12DF2D90
Copy CRC 12DF2D90
Accurately ripped (confidence 107) [B439F820]
Copy OK

Track 12

Filename G:\12 – Exhausted.wav

Pre-gap length 0:00:02.86

Peak level 88.2 %
Extraction speed 2.8 X
Track quality 99.9 %
Test CRC 1DA947B5
Copy CRC 1DA947B5
Accurately ripped (confidence 105) [1CB9C331]
Copy OK

All tracks accurately ripped

No errors occurred

End of status report

REM GENRE Rock
REM DATE 1995
REM DISCID 950A580C
REM COMMENT “ExactAudioCopy v1.0b1”
PERFORMER “Foo Fighters”
TITLE “Foo Fighters EU (RCA 82876 55496 2)”
FILE “01 – This Is A Call.wav” WAVE
TRACK 01 AUDIO
TITLE “This Is A Call”
PERFORMER “Foo Fighters”
INDEX 01 00:00:00
FILE “02 – I’ll Stick Around.wav” WAVE
TRACK 02 AUDIO
TITLE “I’ll Stick Around”
PERFORMER “Foo Fighters”
INDEX 01 00:00:00
TRACK 03 AUDIO
TITLE “Big Me”
PERFORMER “Foo Fighters”
INDEX 00 03:52:40
FILE “03 – Big Me.wav” WAVE
INDEX 01 00:00:00
TRACK 04 AUDIO
TITLE “Alone+Easy Target”
PERFORMER “Foo Fighters”
INDEX 00 02:12:20
FILE “04 – Alone+Easy Target.wav” WAVE
INDEX 01 00:00:00
FILE “05 – Good Grief.wav” WAVE
TRACK 05 AUDIO
TITLE “Good Grief”
PERFORMER “Foo Fighters”
INDEX 01 00:00:00
FILE “06 – Floaty.wav” WAVE
TRACK 06 AUDIO
TITLE “Floaty”
PERFORMER “Foo Fighters”
INDEX 01 00:00:00
TRACK 07 AUDIO
TITLE “Weenie Beenie”
PERFORMER “Foo Fighters”
INDEX 00 04:29:20
FILE “07 – Weenie Beenie.wav” WAVE
INDEX 01 00:00:00
TRACK 08 AUDIO
TITLE “Oh, George”
PERFORMER “Foo Fighters”
INDEX 00 02:44:45
FILE “08 – Oh, George.wav” WAVE
INDEX 01 00:00:00
FILE “09 – For All The Cows.wav” WAVE
TRACK 09 AUDIO
TITLE “For All The Cows”
PERFORMER “Foo Fighters”
INDEX 01 00:00:00
TRACK 10 AUDIO
TITLE “X-Static”
PERFORMER “Foo Fighters”
INDEX 00 03:29:18
FILE “10 – X-Static.wav” WAVE
INDEX 01 00:00:00
TRACK 11 AUDIO
TITLE “Wattershed”
PERFORMER “Foo Fighters”
INDEX 00 04:12:50
FILE “11 – Wattershed.wav” WAVE
INDEX 01 00:00:00
TRACK 12 AUDIO
TITLE “Exhausted”
PERFORMER “Foo Fighters”
INDEX 00 02:13:05
FILE “12 – Exhausted.wav” WAVE
INDEX 01 00:00:00


Leave a Reply

Your email address will not be published. Required fields are marked *

This site uses Akismet to reduce spam. Learn how your comment data is processed.