Foo Fighters – Foo Fighters (Japanese Edition)




Artist: Foo Fighters
Year: 1995/2007
Genre: Rock
Notes: Discogs
Add. Notes: Japanese Edition
Cover incl.: No
Encoder: FLAC
Bitrate: ~1000 kBit/s (44.1 kHz/16 Bit/s)
Log & Cue incl.: Yes
Size: 353,34 MB
Password: “slam” (without ” “)


All Downloads/Hosters are compatible

Download 1
Turbobit.net
KatFile.com
Rapidgator.net
Download 2
Turbobit.net
KatFile.com
Rapidgator.net

Tracklist:

1 - This Is A Call - 3:54
2 - I'll Stick Around - 3:53
3 - Big Me - 2:13
4 - Alone + Easy Target - 4:05
5 - Good Grief - 4:01
6 - Floaty - 4:30
7 - Weenie Beenie - 2:46
8 - Oh, George - 3:01
9 - For All The Cows - 3:30
10 - X-Static - 4:13
11 - Wattershed - 2:16
12 - Exhausted - 5:45
13 - Winnebago - 4:11
14 - PodunK - 3:03

EAC-Log, CUE-Sheed & NFO:

Click to open spoiler
Exact Audio Copy V1.0 beta 1 from 15. November 2010

EAC extraction logfile from 26. July 2011, 14:07

Foo Fighters / Foo Fighters Japan (BVCM-35129)

Used drive : HP DVD Writer 1070d Adapter: 2 ID: 0

Read mode : Secure
Utilize accurate stream : Yes
Defeat audio cache : Yes
Make use of C2 pointers : No

Read offset correction : 6
Overread into Lead-In and Lead-Out : No
Fill up missing offset samples with silence : Yes
Delete leading and trailing silent blocks : No
Null samples used in CRC calculations : Yes
Used interface : Native Win32 interface for Win NT & 2000
Gap handling : Appended to previous track

Used output format : User Defined Encoder
Selected bitrate : 128 kBit/s
Quality : High
Add ID3 tag : No
Command line compressor : C:\Program Files\Exact Audio Copy\Flac\flac.exe
Additional command line options : -8 -V -T “ARTIST=%a” -T “TITLE=%t” -T “ALBUM=%g” -T “DATE=%y” -T “TRACKNUMBER=%n” -T “GENRE=%m” -T “COMMENT=EAC FLAC -8” %s

TOC of the extracted CD

Track | Start | Length | Start sector | End sector
———————————————————
1 | 0:00.00 | 3:54.13 | 0 | 17562
2 | 3:54.13 | 3:53.00 | 17563 | 35037
3 | 7:47.13 | 2:12.42 | 35038 | 44979
4 | 9:59.55 | 4:05.18 | 44980 | 63372
5 | 14:04.73 | 4:01.22 | 63373 | 81469
6 | 18:06.20 | 4:30.10 | 81470 | 101729
7 | 22:36.30 | 2:45.63 | 101730 | 114167
8 | 25:22.18 | 3:00.35 | 114168 | 127702
9 | 28:22.53 | 3:30.10 | 127703 | 143462
10 | 31:52.63 | 4:13.12 | 143463 | 162449
11 | 36:06.00 | 2:15.65 | 162450 | 172639
12 | 38:21.65 | 5:47.63 | 172640 | 198727
13 | 44:09.53 | 4:14.15 | 198728 | 217792
14 | 48:23.68 | 3:03.47 | 217793 | 231564

Track 1

Filename G:\01 – This Is A Call.wav

Pre-gap length 0:00:02.00

Peak level 98.6 %
Extraction speed 1.8 X
Track quality 100.0 %
Test CRC FE87C8FA
Copy CRC FE87C8FA
Track not present in AccurateRip database
Copy OK

Track 2

Filename G:\02 – I’ll Stick Around.wav

Peak level 100.0 %
Extraction speed 2.0 X
Track quality 100.0 %
Test CRC 97BF196E
Copy CRC 97BF196E
Track not present in AccurateRip database
Copy OK

Track 3

Filename G:\03 – Big Me.wav

Pre-gap length 0:00:00.64

Peak level 87.9 %
Extraction speed 1.9 X
Track quality 100.0 %
Test CRC 3DED68BB
Copy CRC 3DED68BB
Track not present in AccurateRip database
Copy OK

Track 4

Filename G:\04 – Alone+Easy Target.wav

Pre-gap length 0:00:00.20

Peak level 98.5 %
Extraction speed 2.3 X
Track quality 100.0 %
Test CRC EA5AB796
Copy CRC EA5AB796
Track not present in AccurateRip database
Copy OK

Track 5

Filename G:\05 – Good Grief.wav

Peak level 98.5 %
Extraction speed 2.4 X
Track quality 100.0 %
Test CRC AF07D6DA
Copy CRC AF07D6DA
Track not present in AccurateRip database
Copy OK

Track 6

Filename G:\06 – Floaty.wav

Peak level 93.3 %
Extraction speed 2.6 X
Track quality 100.0 %
Test CRC D558BC67
Copy CRC D558BC67
Track not present in AccurateRip database
Copy OK

Track 7

Filename G:\07 – Weenie Beenie.wav

Peak level 98.4 %
Extraction speed 2.6 X
Track quality 100.0 %
Test CRC 27E119F8
Copy CRC 27E119F8
Track not present in AccurateRip database
Copy OK

Track 8

Filename G:\08 – Oh, George.wav

Pre-gap length 0:00:00.86

Peak level 91.8 %
Extraction speed 2.7 X
Track quality 100.0 %
Test CRC 1D124A8B
Copy CRC 1D124A8B
Track not present in AccurateRip database
Copy OK

Track 9

Filename G:\09 – For All The Cows.wav

Peak level 98.6 %
Extraction speed 2.8 X
Track quality 100.0 %
Test CRC C30AB5BE
Copy CRC C30AB5BE
Track not present in AccurateRip database
Copy OK

Track 10

Filename G:\10 – X-Static.wav

Pre-gap length 0:00:01.13

Peak level 93.4 %
Extraction speed 3.1 X
Track quality 100.0 %
Test CRC 42598F7F
Copy CRC 42598F7F
Track not present in AccurateRip database
Copy OK

Track 11

Filename G:\11 – Wattershed.wav

Pre-gap length 0:00:00.62

Peak level 98.0 %
Extraction speed 2.8 X
Track quality 100.0 %
Test CRC C7307724
Copy CRC C7307724
Track not present in AccurateRip database
Copy OK

Track 12

Filename G:\12 – Exhausted.wav

Pre-gap length 0:00:02.42

Peak level 88.2 %
Extraction speed 3.4 X
Track quality 100.0 %
Test CRC 4FB3A425
Copy CRC 4FB3A425
Track not present in AccurateRip database
Copy OK

Track 13

Filename G:\13 – Winnebago (Bonus Track).wav

Pre-gap length 0:00:00.33

Peak level 83.5 %
Extraction speed 3.5 X
Track quality 100.0 %
Test CRC DEEFC6BA
Copy CRC DEEFC6BA
Track not present in AccurateRip database
Copy OK

Track 14

Filename G:\14 – Podunk (Bonus Track).wav

Pre-gap length 0:00:01.33

Peak level 86.5 %
Extraction speed 2.3 X
Track quality 99.9 %
Test CRC 41383432
Copy CRC 41383432
Track not present in AccurateRip database
Copy OK

None of the tracks are present in the AccurateRip database

No errors occurred

End of status report

REM GENRE Rock
REM DATE 1995
REM DISCID B90C0F0E
REM COMMENT “ExactAudioCopy v1.0b1”
PERFORMER “Foo Fighters”
TITLE “Foo Fighters Japan (BVCM-35129)”
FILE “01 – This Is A Call.wav” WAVE
TRACK 01 AUDIO
TITLE “This Is A Call”
PERFORMER “Foo Fighters”
INDEX 01 00:00:00
FILE “02 – I’ll Stick Around.wav” WAVE
TRACK 02 AUDIO
TITLE “I’ll Stick Around”
PERFORMER “Foo Fighters”
INDEX 01 00:00:00
TRACK 03 AUDIO
TITLE “Big Me”
PERFORMER “Foo Fighters”
INDEX 00 03:52:27
FILE “03 – Big Me.wav” WAVE
INDEX 01 00:00:00
TRACK 04 AUDIO
TITLE “Alone+Easy Target”
PERFORMER “Foo Fighters”
INDEX 00 02:12:27
FILE “04 – Alone+Easy Target.wav” WAVE
INDEX 01 00:00:00
FILE “05 – Good Grief.wav” WAVE
TRACK 05 AUDIO
TITLE “Good Grief”
PERFORMER “Foo Fighters”
INDEX 01 00:00:00
FILE “06 – Floaty.wav” WAVE
TRACK 06 AUDIO
TITLE “Floaty”
PERFORMER “Foo Fighters”
INDEX 01 00:00:00
FILE “07 – Weenie Beenie.wav” WAVE
TRACK 07 AUDIO
TITLE “Weenie Beenie”
PERFORMER “Foo Fighters”
INDEX 01 00:00:00
TRACK 08 AUDIO
TITLE “Oh, George”
PERFORMER “Foo Fighters”
INDEX 00 02:44:73
FILE “08 – Oh, George.wav” WAVE
INDEX 01 00:00:00
FILE “09 – For All The Cows.wav” WAVE
TRACK 09 AUDIO
TITLE “For All The Cows”
PERFORMER “Foo Fighters”
INDEX 01 00:00:00
TRACK 10 AUDIO
TITLE “X-Static”
PERFORMER “Foo Fighters”
INDEX 00 03:29:00
FILE “10 – X-Static.wav” WAVE
INDEX 01 00:00:00
TRACK 11 AUDIO
TITLE “Wattershed”
PERFORMER “Foo Fighters”
INDEX 00 04:12:40
FILE “11 – Wattershed.wav” WAVE
INDEX 01 00:00:00
TRACK 12 AUDIO
TITLE “Exhausted”
PERFORMER “Foo Fighters”
INDEX 00 02:13:33
FILE “12 – Exhausted.wav” WAVE
INDEX 01 00:00:00
TRACK 13 AUDIO
TITLE “Winnebago (Bonus Track)”
PERFORMER “Foo Fighters”
INDEX 00 05:47:38
FILE “13 – Winnebago (Bonus Track).wav” WAVE
INDEX 01 00:00:00
TRACK 14 AUDIO
TITLE “Podunk (Bonus Track)”
PERFORMER “Foo Fighters”
INDEX 00 04:12:65
FILE “14 – Podunk (Bonus Track).wav” WAVE
INDEX 01 00:00:00


Leave a Reply

Your email address will not be published. Required fields are marked *

Enter the text from the image below
 

This site uses Akismet to reduce spam. Learn how your comment data is processed.