Foo Fighters – Echoes, Silence, Patience & Grace (Japanese Edition)




Artist: Foo Fighters
Year: 2007
Genre: Rock
Notes: Discogs
Add. Notes: Japanese Edition
Cover incl.: Yes
Encoder: FLAC
Bitrate: ~800 kBit/s (44.1 kHz/16 Bit/s)
Log & Cue incl.: Yes
Size: 385 MB
Password: “slam” (without ” “)


All Downloads/Hosters are compatible

Download 1
KatFile.com
Turbobit.net
FileFactory.com
Rapidgator.net
Download 2
KatFile.com
Turbobit.net
FileFactory.com
Rapidgator.net

Tracklist:

1 - The Pretender - 4:29
2 - Let It Die - 4:05
3 - Erase / Replace - 4:13
4 - Long Road To Ruin - 3:45
5 - Come Alive - 5:10
6 - Stranger Things Have Happened - 
5:21
7 - Cheer Up, Boys (Your Make Up Is 
Running) - 3:41
8 - Summer's End - 4:38
9 - Ballad Of The Beaconsfield 
Miners - 2:32
10 - Statues - 3:48
11 - But, Honestly - 4:35
12 - Home - 4:52
Bonus Tracks:
13 - Once & For All (Demo) - 3:48
14 - Seda - 3:45

EAC-Log, CUE-Sheed & NFO:

Click to open spoiler
Exact Audio Copy V1.0 beta 3 from 29. August 2011

EAC extraction logfile from 11. July 2012, 10:27

Foo Fighters / Echoes, Silence, Patience & Grace (Japan, BVCP-21552 (88697-15501-2))

Used drive : HP DVD Writer 1070d Adapter: 3 ID: 0

Read mode : Secure
Utilize accurate stream : Yes
Defeat audio cache : Yes
Make use of C2 pointers : No

Read offset correction : 6
Overread into Lead-In and Lead-Out : No
Fill up missing offset samples with silence : Yes
Delete leading and trailing silent blocks : No
Null samples used in CRC calculations : Yes
Used interface : Native Win32 interface for Win NT & 2000
Gap handling : Appended to previous track

Used output format : User Defined Encoder
Selected bitrate : 192 kBit/s
Quality : High
Add ID3 tag : No
Command line compressor : C:\Program Files (x86)\FLAC\flac.exe
Additional command line options : -T “artist=%artist%” -T “title=%title%” -T “album=%albumtitle%” -T “date=%year%” -T “tracknumber=%tracknr%” -T “genre=%genre%” -5 %source%

TOC of the extracted CD

Track | Start | Length | Start sector | End sector
———————————————————
1 | 0:00.00 | 4:29.25 | 0 | 20199
2 | 4:29.25 | 4:05.27 | 20200 | 38601
3 | 8:34.52 | 4:13.10 | 38602 | 57586
4 | 12:47.62 | 3:44.68 | 57587 | 74454
5 | 16:32.55 | 5:10.45 | 74455 | 97749
6 | 21:43.25 | 5:21.04 | 97750 | 121828
7 | 27:04.29 | 3:41.13 | 121829 | 138416
8 | 30:45.42 | 4:37.73 | 138417 | 159264
9 | 35:23.40 | 2:32.14 | 159265 | 170678
10 | 37:55.54 | 3:47.63 | 170679 | 187766
11 | 41:43.42 | 4:35.53 | 187767 | 208444
12 | 46:19.20 | 4:52.60 | 208445 | 230404
13 | 51:12.05 | 3:48.06 | 230405 | 247510
14 | 55:00.11 | 3:44.39 | 247511 | 264349

Track 1

Filename G:\01 – The Pretender.wav

Pre-gap length 0:00:02.00

Peak level 98.8 %
Extraction speed 1.8 X
Track quality 100.0 %
Test CRC 92EE2733
Copy CRC 92EE2733
Accurately ripped (confidence 3) [505A9892] (AR v2)
Copy OK

Track 2

Filename G:\02 – Let It Die.wav

Peak level 100.0 %
Extraction speed 1.8 X
Track quality 99.9 %
Test CRC A945233F
Copy CRC A945233F
Accurately ripped (confidence 3) [5DA11138] (AR v2)
Copy OK

Track 3

Filename G:\03 – Erase,Replace.wav

Pre-gap length 0:00:00.27

Peak level 98.8 %
Extraction speed 2.2 X
Track quality 100.0 %
Test CRC DA577E84
Copy CRC DA577E84
Accurately ripped (confidence 3) [690C2308] (AR v2)
Copy OK

Track 4

Filename G:\04 – Long Road To Ruin.wav

Peak level 100.0 %
Extraction speed 2.4 X
Track quality 100.0 %
Test CRC A82B7855
Copy CRC A82B7855
Accurately ripped (confidence 3) [B43E516C] (AR v2)
Copy OK

Track 5

Filename G:\05 – Come Alive.wav

Peak level 100.0 %
Extraction speed 2.6 X
Track quality 100.0 %
Test CRC 9D3F87CA
Copy CRC 9D3F87CA
Accurately ripped (confidence 3) [2255ADEF] (AR v2)
Copy OK

Track 6

Filename G:\06 – Stranger Things Have Happened.wav

Peak level 82.9 %
Extraction speed 2.4 X
Track quality 99.9 %
Test CRC 9B17AC1D
Copy CRC 9B17AC1D
Accurately ripped (confidence 3) [4BE796A8] (AR v2)
Copy OK

Track 7

Filename G:\07 – Cheer Up, Boys (Your Make Up Is Running).wav

Peak level 100.0 %
Extraction speed 2.9 X
Track quality 100.0 %
Test CRC 8B6F7FA8
Copy CRC 8B6F7FA8
Accurately ripped (confidence 3) [94915208] (AR v2)
Copy OK

Track 8

Filename G:\08 – Summer’s End.wav

Peak level 100.0 %
Extraction speed 3.1 X
Track quality 100.0 %
Test CRC D1DDC07F
Copy CRC D1DDC07F
Accurately ripped (confidence 3) [AA662B60] (AR v2)
Copy OK

Track 9

Filename G:\09 – Ballad Of The Beaconsfield Miners.wav

Peak level 90.9 %
Extraction speed 2.9 X
Track quality 100.0 %
Test CRC 3FBBF4C4
Copy CRC 3FBBF4C4
Accurately ripped (confidence 3) [14677E94] (AR v2)
Copy OK

Track 10

Filename G:\10 – Statues.wav

Peak level 100.0 %
Extraction speed 3.2 X
Track quality 100.0 %
Test CRC 8A120D07
Copy CRC 8A120D07
Accurately ripped (confidence 3) [86ABB8C6] (AR v2)
Copy OK

Track 11

Filename G:\11 – But, Honestly.wav

Peak level 100.0 %
Extraction speed 3.5 X
Track quality 100.0 %
Test CRC E1590402
Copy CRC E1590402
Accurately ripped (confidence 3) [712D5CBA] (AR v2)
Copy OK

Track 12

Filename G:\12 – Home.wav

Peak level 100.0 %
Extraction speed 2.8 X
Track quality 99.9 %
Test CRC 43B1ED97
Copy CRC 43B1ED97
Accurately ripped (confidence 3) [9D99E0DC] (AR v2)
Copy OK

Track 13

Filename G:\13 – Once & For All (Demo) (Bonus Track).wav

Pre-gap length 0:00:00.08

Peak level 98.8 %
Extraction speed 2.7 X
Track quality 99.9 %
Test CRC 8E32D09A
Copy CRC 8E32D09A
Accurately ripped (confidence 3) [8EDBB60F] (AR v2)
Copy OK

Track 14

Filename G:\14 – Seda (Bonus Track).wav

Pre-gap length 0:00:00.12

Peak level 93.7 %
Extraction speed 3.7 X
Track quality 100.0 %
Test CRC 548E4F6B
Copy CRC 548E4F6B
Accurately ripped (confidence 3) [08F7D949] (AR v2)
Copy OK

All tracks accurately ripped

No errors occurred

End of status report

==== Log checksum F4FA1426434573BA6E20F160A8689E7A9DB5EF51EB9FCD95E6FE5F63516B0FB1 ====

REM GENRE Rock
REM DATE 2007
REM DISCID C00DC40E
REM COMMENT “ExactAudioCopy v1.0b3”
CATALOG 4988017651988
PERFORMER “Foo Fighters”
TITLE “Echoes, Silence, Patience & Grace (Japan, BVCP-21552 (88697-15501-2))”
FILE “01 – The Pretender.wav” WAVE
TRACK 01 AUDIO
TITLE “The Pretender”
PERFORMER “Foo Fighters”
ISRC USRW30700007
INDEX 01 00:00:00
FILE “02 – Let It Die.wav” WAVE
TRACK 02 AUDIO
TITLE “Let It Die”
PERFORMER “Foo Fighters”
ISRC USRW30700008
INDEX 01 00:00:00
TRACK 03 AUDIO
TITLE “Erase/Replace”
PERFORMER “Foo Fighters”
ISRC USRW30700009
INDEX 00 04:05:00
FILE “03 – Erase,Replace.wav” WAVE
INDEX 01 00:00:00
FILE “04 – Long Road To Ruin.wav” WAVE
TRACK 04 AUDIO
TITLE “Long Road To Ruin”
PERFORMER “Foo Fighters”
ISRC USRW30700010
INDEX 01 00:00:00
FILE “05 – Come Alive.wav” WAVE
TRACK 05 AUDIO
TITLE “Come Alive”
PERFORMER “Foo Fighters”
ISRC USRW30700011
INDEX 01 00:00:00
FILE “06 – Stranger Things Have Happened.wav” WAVE
TRACK 06 AUDIO
TITLE “Stranger Things Have Happened”
PERFORMER “Foo Fighters”
ISRC USRW30700012
INDEX 01 00:00:00
FILE “07 – Cheer Up, Boys (Your Make Up Is Running).wav” WAVE
TRACK 07 AUDIO
TITLE “Cheer Up, Boys (Your Make Up Is Running)”
PERFORMER “Foo Fighters”
ISRC USRW30700013
INDEX 01 00:00:00
FILE “08 – Summer’s End.wav” WAVE
TRACK 08 AUDIO
TITLE “Summer’s End”
PERFORMER “Foo Fighters”
ISRC USRW30700014
INDEX 01 00:00:00
FILE “09 – Ballad Of The Beaconsfield Miners.wav” WAVE
TRACK 09 AUDIO
TITLE “Ballad Of The Beaconsfield Miners”
PERFORMER “Foo Fighters”
ISRC USRW30700015
INDEX 01 00:00:00
FILE “10 – Statues.wav” WAVE
TRACK 10 AUDIO
TITLE “Statues”
PERFORMER “Foo Fighters”
ISRC USRW30700016
INDEX 01 00:00:00
FILE “11 – But, Honestly.wav” WAVE
TRACK 11 AUDIO
TITLE “But, Honestly”
PERFORMER “Foo Fighters”
ISRC USRW30700017
INDEX 01 00:00:00
FILE “12 – Home.wav” WAVE
TRACK 12 AUDIO
TITLE “Home”
PERFORMER “Foo Fighters”
ISRC USRW30700018
INDEX 01 00:00:00
TRACK 13 AUDIO
TITLE “Once & For All (Demo) (Bonus Track)”
PERFORMER “Foo Fighters”
ISRC USRW30700019
INDEX 00 04:52:52
FILE “13 – Once & For All (Demo) (Bonus Track).wav” WAVE
INDEX 01 00:00:00
TRACK 14 AUDIO
TITLE “Seda (Bonus Track)”
PERFORMER “Foo Fighters”
ISRC USRW30700020
INDEX 00 03:47:69
FILE “14 – Seda (Bonus Track).wav” WAVE
INDEX 01 00:00:00


Leave a Reply

Your email address will not be published. Required fields are marked *

This site uses Akismet to reduce spam. Learn how your comment data is processed.