Foo Fighters – Echoes, Silence, Patience & Grace




Artist: Foo Fighters
Year: 2007
Genre: Rock
Notes: Discogs
Add. Notes:
Cover incl.: Yes
Encoder: FLAC
Bitrate: ~900 kBit/s (44.1 kHz/16 Bit/s)
Log & Cue incl.: Yes
Size: 336 MB
Password: “slam” (without ” “)


All Downloads/Hosters are compatible

Download 1
KatFile.com
Rapidgator.net
Turbobit.net
FileFactory.com
Download 2
KatFile.com
Rapidgator.net
Turbobit.net
FileFactory.com

Tracklist:

1 - The Pretender - 4:29
2 - Let It Die - 4:05
3 - Erase/Replace - 4:13
4 - Long Road To Ruin - 3:44
5 - Come Alive - 5:10
6 - Stranger Things Have Happened - 
5:21
7 - Cheer Up, Boys (Your Make Up Is 
Running) - 3:41
8 - Summer's End - 4:37
9 - Ballad Of The Beaconsfield 
Miners - 2:32
10 - Statues - 3:47
11 - But, Honestly - 4:35
12 - Home - 4:53

EAC-Log, CUE-Sheed & NFO:

Click to open spoiler
Exact Audio Copy V1.0 beta 1 from 15. November 2010

EAC extraction logfile from 3. January 2011, 12:45

Foo Fighters / Echoes, Silence, Patience & Grace US (RCA 88697 11516-2)

Used drive : HP DVD Writer 1070d Adapter: 2 ID: 0

Read mode : Secure
Utilize accurate stream : Yes
Defeat audio cache : Yes
Make use of C2 pointers : No

Read offset correction : 6
Overread into Lead-In and Lead-Out : No
Fill up missing offset samples with silence : Yes
Delete leading and trailing silent blocks : No
Null samples used in CRC calculations : Yes
Used interface : Native Win32 interface for Win NT & 2000
Gap handling : Appended to previous track

Used output format : User Defined Encoder
Selected bitrate : 896 kBit/s
Quality : High
Add ID3 tag : No
Command line compressor : C:\Program Files\Exact Audio Copy\flac.exe
Additional command line options : -8 -V -T “ARTIST=%a” -T “TITLE=%t” -T “ALBUM=%g” -T “DATE=%y” -T “TRACKNUMBER=%n” -T “GENRE=%m” -T “COMMENT=EAC FLAC -8” %s

TOC of the extracted CD

Track | Start | Length | Start sector | End sector
———————————————————
1 | 0:00.00 | 4:29.28 | 0 | 20202
2 | 4:29.28 | 4:05.26 | 20203 | 38603
3 | 8:34.54 | 4:13.10 | 38604 | 57588
4 | 12:47.64 | 3:44.66 | 57589 | 74454
5 | 16:32.55 | 5:10.45 | 74455 | 97749
6 | 21:43.25 | 5:21.04 | 97750 | 121828
7 | 27:04.29 | 3:41.13 | 121829 | 138416
8 | 30:45.42 | 4:37.73 | 138417 | 159264
9 | 35:23.40 | 2:32.16 | 159265 | 170680
10 | 37:55.56 | 3:47.61 | 170681 | 187766
11 | 41:43.42 | 4:35.53 | 187767 | 208444
12 | 46:19.20 | 4:53.34 | 208445 | 230453

Track 1

Filename G:\01 – The Pretender.wav

Pre-gap length 0:00:02.00

Peak level 98.8 %
Extraction speed 1.8 X
Track quality 100.0 %
Test CRC 4859CE68
Copy CRC 4859CE68
Accurately ripped (confidence 3) [FE3F21FB]
Copy OK

Track 2

Filename G:\02 – Let It Die.wav

Peak level 100.0 %
Extraction speed 2.0 X
Track quality 100.0 %
Test CRC 41DA83AE
Copy CRC 41DA83AE
Accurately ripped (confidence 3) [A95C8033]
Copy OK

Track 3

Filename G:\03 – Erase,Replace.wav

Pre-gap length 0:00:00.38

Peak level 98.8 %
Extraction speed 2.2 X
Track quality 100.0 %
Test CRC CE609181
Copy CRC CE609181
Accurately ripped (confidence 3) [4367B896]
Copy OK

Track 4

Filename G:\04 – Long Road To Ruin.wav

Peak level 100.0 %
Extraction speed 2.3 X
Track quality 100.0 %
Test CRC 323C4FA5
Copy CRC 323C4FA5
Accurately ripped (confidence 3) [4AAC6A5F]
Copy OK

Track 5

Filename G:\05 – Come Alive.wav

Peak level 100.0 %
Extraction speed 2.6 X
Track quality 100.0 %
Test CRC 014C4E9B
Copy CRC 014C4E9B
Accurately ripped (confidence 3) [880D57BC]
Copy OK

Track 6

Filename G:\06 – Stranger Things Have Happened.wav

Peak level 82.9 %
Extraction speed 2.8 X
Track quality 100.0 %
Test CRC FD12576C
Copy CRC FD12576C
Accurately ripped (confidence 3) [6818B4C9]
Copy OK

Track 7

Filename G:\07 – Cheer Up, Boys (Your Make Up Is Running).wav

Peak level 100.0 %
Extraction speed 2.2 X
Track quality 99.9 %
Test CRC BC6C61BB
Copy CRC BC6C61BB
Accurately ripped (confidence 3) [3C96BBB2]
Copy OK

Track 8

Filename G:\08 – Summer’s End.wav

Peak level 100.0 %
Extraction speed 3.0 X
Track quality 100.0 %
Test CRC CB58748E
Copy CRC CB58748E
Accurately ripped (confidence 3) [65E1AA73]
Copy OK

Track 9

Filename G:\09 – Ballad Of The Beaconsfield Miners.wav

Peak level 90.9 %
Extraction speed 2.8 X
Track quality 100.0 %
Test CRC E77E461E
Copy CRC E77E461E
Accurately ripped (confidence 3) [7AB4BCDE]
Copy OK

Track 10

Filename G:\10 – Statues.wav

Peak level 100.0 %
Extraction speed 2.4 X
Track quality 99.9 %
Test CRC 23B7DB4B
Copy CRC 23B7DB4B
Accurately ripped (confidence 3) [A5FC25FC]
Copy OK

Track 11

Filename G:\11 – But, Honestly.wav

Peak level 100.0 %
Extraction speed 3.4 X
Track quality 100.0 %
Test CRC A56E1390
Copy CRC A56E1390
Accurately ripped (confidence 3) [F699BE1F]
Copy OK

Track 12

Filename G:\12 – Home.wav

Peak level 100.0 %
Extraction speed 3.5 X
Track quality 100.0 %
Test CRC E8970849
Copy CRC E8970849
Accurately ripped (confidence 3) [898DE16F]
Copy OK

All tracks accurately ripped

No errors occurred

End of status report

REM GENRE Rock
REM DATE 2007
REM DISCID AA0C000C
REM COMMENT “ExactAudioCopy v1.0b1”
PERFORMER “Foo Fighters”
TITLE “Echoes, Silence, Patience & Grace US (RCA 88697 11516-2)”
FILE “01 – The Pretender.wav” WAVE
TRACK 01 AUDIO
TITLE “The Pretender”
PERFORMER “Foo Fighters”
INDEX 01 00:00:00
FILE “02 – Let It Die.wav” WAVE
TRACK 02 AUDIO
TITLE “Let It Die”
PERFORMER “Foo Fighters”
INDEX 01 00:00:00
TRACK 03 AUDIO
TITLE “Erase/Replace”
PERFORMER “Foo Fighters”
INDEX 00 04:04:72
FILE “03 – Erase,Replace.wav” WAVE
INDEX 01 00:00:00
FILE “04 – Long Road To Ruin.wav” WAVE
TRACK 04 AUDIO
TITLE “Long Road To Ruin”
PERFORMER “Foo Fighters”
INDEX 01 00:00:00
FILE “05 – Come Alive.wav” WAVE
TRACK 05 AUDIO
TITLE “Come Alive”
PERFORMER “Foo Fighters”
INDEX 01 00:00:00
FILE “06 – Stranger Things Have Happened.wav” WAVE
TRACK 06 AUDIO
TITLE “Stranger Things Have Happened”
PERFORMER “Foo Fighters”
INDEX 01 00:00:00
FILE “07 – Cheer Up, Boys (Your Make Up Is Running).wav” WAVE
TRACK 07 AUDIO
TITLE “Cheer Up, Boys (Your Make Up Is Running)”
PERFORMER “Foo Fighters”
INDEX 01 00:00:00
FILE “08 – Summer’s End.wav” WAVE
TRACK 08 AUDIO
TITLE “Summer’s End”
PERFORMER “Foo Fighters”
INDEX 01 00:00:00
FILE “09 – Ballad Of The Beaconsfield Miners.wav” WAVE
TRACK 09 AUDIO
TITLE “Ballad Of The Beaconsfield Miners”
PERFORMER “Foo Fighters”
INDEX 01 00:00:00
FILE “10 – Statues.wav” WAVE
TRACK 10 AUDIO
TITLE “Statues”
PERFORMER “Foo Fighters”
INDEX 01 00:00:00
FILE “11 – But, Honestly.wav” WAVE
TRACK 11 AUDIO
TITLE “But, Honestly”
PERFORMER “Foo Fighters”
INDEX 01 00:00:00
FILE “12 – Home.wav” WAVE
TRACK 12 AUDIO
TITLE “Home”
PERFORMER “Foo Fighters”
INDEX 01 00:00:00


Leave a Reply

Your email address will not be published. Required fields are marked *

Enter the text from the image below
 

This site uses Akismet to reduce spam. Learn how your comment data is processed.