Foo Fighters – Concrete And Gold




[Total: 0    Average: 0/5]

Artist: Foo Fighters
Year: 2017
Genre: Rock
Notes: Discogs
Add. Notes:
Cover incl.: Yes
Encoder: FLAC
Bitrate: ~1000 kBit/s (44.1 kHz/16 Bit/s)
Log & Cue incl.: Yes
Size: 315 MB
Password: “slam” (without ” “)


All Downloads/Hosters are compatible

Download 1
Share-online.biz
KatFile.com
Rapidgator.net
Mexa.sh
Download 2
Share-online.biz
KatFile.com
Rapidgator.net
Mexa.sh

Tracklist:

1 - T-Shirt - 1:23
2 - Run - 5:23
3 - Make It Right - 4:39
4 - The Sky Is A Neighborhood - 4:05
5 - La Dee Da - 4:03
6 - Dirty Water - 5:21
7 - Arrows - 4:26
8 - Happy Ever After (Zero Hour) - 
3:41
9 - Sunday Rain - 6:11
10 - The Line - 3:38
11 - Concrete And Gold - 5:38

EAC-Log, CUE-Sheed & NFO:

Click to open spoiler
Exact Audio Copy V1.0 beta 3 from 29. August 2011

EAC extraction logfile from 31. October 2017, 20:35

Foo Fighters / Concrete And Gold (US, 8985-45601-2)

Used drive : Optiarc BD RW BD-5300S Adapter: 3 ID: 0

Read mode : Secure
Utilize accurate stream : Yes
Defeat audio cache : Yes
Make use of C2 pointers : No

Read offset correction : 6
Overread into Lead-In and Lead-Out : No
Fill up missing offset samples with silence : Yes
Delete leading and trailing silent blocks : No
Null samples used in CRC calculations : Yes
Used interface : Native Win32 interface for Win NT & 2000
Gap handling : Appended to previous track

Used output format : User Defined Encoder
Selected bitrate : 128 kBit/s
Quality : High
Add ID3 tag : Yes
Command line compressor : C:\Program Files (x86)\Exact Audio Copy\Flac\flac.exe
Additional command line options : -V -8 -T “Genre=%genre%” -T “Artist=%artist%” -T “Title=%title%” -T “Album=%albumtitle%” -T “Date=%year%” -T “Tracknumber=%tracknr%” -T “Comment=%comment%” %source%

TOC of the extracted CD

Track | Start | Length | Start sector | End sector
———————————————————
1 | 0:00.00 | 1:22.46 | 0 | 6195
2 | 1:22.46 | 5:23.28 | 6196 | 30448
3 | 6:45.74 | 4:39.19 | 30449 | 51392
4 | 11:25.18 | 4:04.43 | 51393 | 69735
5 | 15:29.61 | 4:02.57 | 69736 | 87942
6 | 19:32.43 | 5:20.66 | 87943 | 112008
7 | 24:53.34 | 4:26.14 | 112009 | 131972
8 | 29:19.48 | 3:40.73 | 131973 | 148545
9 | 33:00.46 | 6:11.34 | 148546 | 176404
10 | 39:12.05 | 3:38.18 | 176405 | 192772
11 | 42:50.23 | 5:31.47 | 192773 | 217644

Track 1

Filename D:\01 – T-Shirt.wav

Pre-gap length 0:00:02.00

Peak level 99.9 %
Extraction speed 1.7 X
Track quality 100.0 %
Test CRC 2043DE0C
Copy CRC 2043DE0C
Accurately ripped (confidence 39) [708790FB] (AR v2)
Copy OK

Track 2

Filename D:\02 – Run.wav

Peak level 98.9 %
Extraction speed 1.9 X
Track quality 99.9 %
Test CRC 503A9000
Copy CRC 503A9000
Accurately ripped (confidence 40) [875FB7AC] (AR v2)
Copy OK

Track 3

Filename D:\03 – Make It Right.wav

Peak level 99.8 %
Extraction speed 2.6 X
Track quality 100.0 %
Test CRC 3894FAC5
Copy CRC 3894FAC5
Accurately ripped (confidence 40) [6DD0824D] (AR v2)
Copy OK

Track 4

Filename D:\04 – The Sky Is A Neighborhood.wav

Peak level 99.8 %
Extraction speed 2.8 X
Track quality 100.0 %
Test CRC FCB365D7
Copy CRC FCB365D7
Accurately ripped (confidence 40) [3D838D5B] (AR v2)
Copy OK

Track 5

Filename D:\05 – La Dee Da.wav

Peak level 95.1 %
Extraction speed 3.0 X
Track quality 100.0 %
Test CRC AF78D375
Copy CRC AF78D375
Accurately ripped (confidence 40) [C068CA36] (AR v2)
Copy OK

Track 6

Filename D:\06 – Dirty Water.wav

Peak level 99.9 %
Extraction speed 3.3 X
Track quality 100.0 %
Test CRC 08EB4FC6
Copy CRC 08EB4FC6
Accurately ripped (confidence 40) [181BE9AC] (AR v2)
Copy OK

Track 7

Filename D:\07 – Arrows.wav

Peak level 100.0 %
Extraction speed 3.4 X
Track quality 100.0 %
Test CRC 917C27CD
Copy CRC 917C27CD
Accurately ripped (confidence 39) [4B6AA3BD] (AR v2)
Copy OK

Track 8

Filename D:\08 – Happy Ever After (Zero Hour).wav

Peak level 84.9 %
Extraction speed 3.4 X
Track quality 100.0 %
Test CRC 99AB77F6
Copy CRC 99AB77F6
Accurately ripped (confidence 40) [60F12DB7] (AR v2)
Copy OK

Track 9

Filename D:\09 – Sunday Rain.wav

Peak level 98.8 %
Extraction speed 3.8 X
Track quality 100.0 %
Test CRC BE8E1DAD
Copy CRC BE8E1DAD
Accurately ripped (confidence 40) [025CD27F] (AR v2)
Copy OK

Track 10

Filename D:\10 – The Line.wav

Peak level 95.7 %
Extraction speed 3.7 X
Track quality 100.0 %
Test CRC C5C10053
Copy CRC C5C10053
Accurately ripped (confidence 40) [4AE63730] (AR v2)
Copy OK

Track 11

Filename D:\11 – Concrete And Gold.wav

Peak level 98.4 %
Extraction speed 4.1 X
Track quality 100.0 %
Test CRC 328C292A
Copy CRC 328C292A
Accurately ripped (confidence 40) [ABB0DEF3] (AR v2)
Copy OK

All tracks accurately ripped

No errors occurred

End of status report

==== Log checksum 1C4ACC62140EF103E7FB3277DDADAC5EFAC6516FF12F142698734769E6BDA546 ====

REM GENRE Rock
REM DATE 2017
REM DISCID 9C0B550B
REM COMMENT “ExactAudioCopy v1.0b3”
PERFORMER “Foo Fighters”
TITLE “Concrete And Gold (US, 8985-45601-2)”
FILE “01 – T-Shirt.wav” WAVE
TRACK 01 AUDIO
TITLE “T-Shirt”
PERFORMER “Foo Fighters”
ISRC USRW31700016
INDEX 01 00:00:00
FILE “02 – Run.wav” WAVE
TRACK 02 AUDIO
TITLE “Run”
PERFORMER “Foo Fighters”
ISRC USRW31700013
INDEX 01 00:00:00
FILE “03 – Make It Right.wav” WAVE
TRACK 03 AUDIO
TITLE “Make It Right”
PERFORMER “Foo Fighters”
ISRC USRW31700017
INDEX 01 00:00:00
FILE “04 – The Sky Is A Neighborhood.wav” WAVE
TRACK 04 AUDIO
TITLE “The Sky Is A Neighborhood”
PERFORMER “Foo Fighters”
ISRC USRW31700018
INDEX 01 00:00:00
FILE “05 – La Dee Da.wav” WAVE
TRACK 05 AUDIO
TITLE “La Dee Da”
PERFORMER “Foo Fighters”
ISRC USRW31700019
INDEX 01 00:00:00
FILE “06 – Dirty Water.wav” WAVE
TRACK 06 AUDIO
TITLE “Dirty Water”
PERFORMER “Foo Fighters”
ISRC USRW31700020
INDEX 01 00:00:00
FILE “07 – Arrows.wav” WAVE
TRACK 07 AUDIO
TITLE “Arrows”
PERFORMER “Foo Fighters”
ISRC USRW31700021
INDEX 01 00:00:00
FILE “08 – Happy Ever After (Zero Hour).wav” WAVE
TRACK 08 AUDIO
TITLE “Happy Ever After (Zero Hour)”
PERFORMER “Foo Fighters”
ISRC USRW31700022
INDEX 01 00:00:00
FILE “09 – Sunday Rain.wav” WAVE
TRACK 09 AUDIO
TITLE “Sunday Rain”
PERFORMER “Foo Fighters”
ISRC USRW31700023
INDEX 01 00:00:00
FILE “10 – The Line.wav” WAVE
TRACK 10 AUDIO
TITLE “The Line”
PERFORMER “Foo Fighters”
ISRC USRW31700025
INDEX 01 00:00:00
FILE “11 – Concrete And Gold.wav” WAVE
TRACK 11 AUDIO
TITLE “Concrete And Gold”
PERFORMER “Foo Fighters”
ISRC USRW31700026
INDEX 01 00:00:00


Spread the Download

Leave a Reply

Your email address will not be published. Required fields are marked *

Enter the text from the image below
 

This site uses Akismet to reduce spam. Learn how your comment data is processed.