Fleetwood Mac – Greatest Hits




[Total: 0    Average: 0/5]

Artist: Fleetwood Mac
Year: 1988
Genre: Rock
Notes: Discogs
Add. Notes:
Cover incl.: Yes
Encoder: ALAC
Bitrate: ~900 kBit/s (44.1 kHz/16 Bit/s)
Log & Cue incl.: Yes/No
Size: 416,5 MB
Password: “slam” (without ” “)


All Downloads/Hosters are compatible

Download 1
KatFile.com
Turbobit.net
FileFactory.com
Rapidgator.net
Download 2
KatFile.com
Turbobit.net
FileFactory.com
Rapidgator.net

Tracklist:

1 Rhiannon 4:10
2 Go Your Own Way 3:37
3 Don't Stop 3:11
4 Gypsy 4:22
5 Everywhere 3:41
6 You Make Loving Fun 3:31
7 Big Love 3:39
8 As Long As You Follow 4:11
9 Say You Love Me 4:09
10 Dreams 4:15
11 Little Lies 3:37
12 Oh Diane 2:33
13 Sara 6:24
14 Tusk 3:26
15 Seven Wonders 3:33
16 Hold Me 3:44
17 No Questions Asked 4:40

EAC-Log, CUE-Sheed & NFO:

Click to open spoiler
X Lossless Decoder version 20100424 (118.0)

XLD extraction logfile from 2010-04-29 19:06:18 +0600

Fleetwood Mac / Greatest Hits

Used drive : MATSHITA DVD-R UJ-857 (revision HAEA)

Use cdparanoia mode : YES (CDParanoia III 10.2 engine)
Disable audio cache : OK for the drive with cache less than 2750KB
Make use of C2 pointers : NO
Read offset correction : 102
Max retry count : 100

TOC of the extracted CD
Track | Start | Length | Start sector | End sector
———————————————————
1 | 00:00:32 | 04:11:43 | 32 | 18899
2 | 04:12:00 | 03:12:00 | 18900 | 33299
3 | 07:24:00 | 03:38:42 | 33300 | 49691
4 | 11:02:42 | 03:45:38 | 49692 | 66604
5 | 14:48:05 | 03:42:27 | 66605 | 83281
6 | 18:30:32 | 04:24:68 | 83282 | 103149
7 | 22:55:25 | 03:31:40 | 103150 | 119014
8 | 26:26:65 | 04:10:22 | 119015 | 137786
9 | 30:37:12 | 04:14:48 | 137787 | 156884
10 | 34:51:60 | 04:10:22 | 156885 | 175656
11 | 39:02:07 | 03:30:13 | 175657 | 191419
12 | 42:32:20 | 03:38:02 | 191420 | 207771
13 | 46:10:22 | 06:22:50 | 207772 | 236471
14 | 52:32:72 | 03:38:63 | 236472 | 252884
15 | 56:11:60 | 03:34:50 | 252885 | 268984
16 | 59:46:35 | 04:40:70 | 268985 | 290054

List of alternate offset correction values
# | Absolute | Relative | Confidence
——————————————
1 | -438 | -540 | 140
2 | 278 | 176 | 106
3 | 1503 | 1401 | 97
4 | -1785 | -1887 | 57
5 | -208 | -310 | 46
6 | 695 | 593 | 34
7 | -94 | -196 | 30
8 | -1775 | -1877 | 26
9 | 60 | -42 | 15
10 | 611 | 509 | 11
11 | -1871 | -1973 | 9
12 | 23 | -79 | 7
13 | -1988 | -2090 | 3
14 | 2397 | 2295 | 2

Track 01
Filename : /Users/gubarenko/Desktop/Fleetwood Mac – Greatest Hits/01 – Rhiannon.flac

Pre-gap length : 00:02:32

CRC32 hash (test run) : 4205FACB
CRC32 hash : 4205FACB
CRC32 hash (skip zero) : 58F5EDB1
AccurateRip signature : D6F9AA58
->Accurately ripped! (confidence 13)
Statistics
Read error : 0
Skipped (treated as error) : 0
Edge jitter error (maybe fixed) : 0
Atom jitter error (maybe fixed) : 0
Drift error (maybe fixed) : 0
Dropped bytes error (maybe fixed) : 0
Duplicated bytes error (maybe fixed) : 0
Inconsistency in error sectors : 0

Track 02
Filename : /Users/gubarenko/Desktop/Fleetwood Mac – Greatest Hits/02 – Don’t Stop.flac

Pre-gap length : 00:01:38

CRC32 hash (test run) : 430174DC
CRC32 hash : 430174DC
CRC32 hash (skip zero) : FDB1DF07
AccurateRip signature : 80103B33
->Accurately ripped! (confidence 12)
Statistics
Read error : 0
Skipped (treated as error) : 0
Edge jitter error (maybe fixed) : 1
Atom jitter error (maybe fixed) : 0
Drift error (maybe fixed) : 0
Dropped bytes error (maybe fixed) : 1
Duplicated bytes error (maybe fixed) : 1
Inconsistency in error sectors : 0

Track 03
Filename : /Users/gubarenko/Desktop/Fleetwood Mac – Greatest Hits/03 – Go Your Own Way.flac

Pre-gap length : 00:01:28

CRC32 hash (test run) : 5C1E6E1A
CRC32 hash : 5C1E6E1A
CRC32 hash (skip zero) : EED94E6A
AccurateRip signature : F54EF82F
->Accurately ripped! (confidence 13)
Statistics
Read error : 0
Skipped (treated as error) : 0
Edge jitter error (maybe fixed) : 1
Atom jitter error (maybe fixed) : 0
Drift error (maybe fixed) : 0
Dropped bytes error (maybe fixed) : 0
Duplicated bytes error (maybe fixed) : 1
Inconsistency in error sectors : 0

Track 04
Filename : /Users/gubarenko/Desktop/Fleetwood Mac – Greatest Hits/04 – Hold Me.flac

Pre-gap length : 00:02:10

CRC32 hash (test run) : 34612EBB
CRC32 hash : 34612EBB
CRC32 hash (skip zero) : 8EA973FB
AccurateRip signature : B9971824
->Accurately ripped! (confidence 13)
Statistics
Read error : 0
Skipped (treated as error) : 0
Edge jitter error (maybe fixed) : 1
Atom jitter error (maybe fixed) : 0
Drift error (maybe fixed) : 0
Dropped bytes error (maybe fixed) : 0
Duplicated bytes error (maybe fixed) : 1
Inconsistency in error sectors : 0

Track 05
Filename : /Users/gubarenko/Desktop/Fleetwood Mac – Greatest Hits/05 – Everywhere.flac

Pre-gap length : 00:01:05

CRC32 hash (test run) : F351DA86
CRC32 hash : F351DA86
CRC32 hash (skip zero) : 94F45B01
AccurateRip signature : F30F7456
->Accurately ripped! (confidence 13)
Statistics
Read error : 0
Skipped (treated as error) : 0
Edge jitter error (maybe fixed) : 0
Atom jitter error (maybe fixed) : 0
Drift error (maybe fixed) : 0
Dropped bytes error (maybe fixed) : 0
Duplicated bytes error (maybe fixed) : 0
Inconsistency in error sectors : 0

Track 06
Filename : /Users/gubarenko/Desktop/Fleetwood Mac – Greatest Hits/06 – Gypsy.flac

Pre-gap length : 00:01:02

CRC32 hash (test run) : 2454FA86
CRC32 hash : 2454FA86
CRC32 hash (skip zero) : F7ED469C
AccurateRip signature : C20A5D2B
->Accurately ripped! (confidence 12)
Statistics
Read error : 0
Skipped (treated as error) : 0
Edge jitter error (maybe fixed) : 0
Atom jitter error (maybe fixed) : 0
Drift error (maybe fixed) : 0
Dropped bytes error (maybe fixed) : 0
Duplicated bytes error (maybe fixed) : 0
Inconsistency in error sectors : 0

Track 07
Filename : /Users/gubarenko/Desktop/Fleetwood Mac – Greatest Hits/07 – You Make Loving Fun.flac

Pre-gap length : 00:01:18

CRC32 hash (test run) : F80EDEEA
CRC32 hash : F80EDEEA
CRC32 hash (skip zero) : 10C9B503
AccurateRip signature : ACFB89C2
->Accurately ripped! (confidence 11)
Statistics
Read error : 0
Skipped (treated as error) : 0
Edge jitter error (maybe fixed) : 1
Atom jitter error (maybe fixed) : 0
Drift error (maybe fixed) : 0
Dropped bytes error (maybe fixed) : 0
Duplicated bytes error (maybe fixed) : 1
Inconsistency in error sectors : 0

Track 08
Filename : /Users/gubarenko/Desktop/Fleetwood Mac – Greatest Hits/08 – As Long As You Follow.flac

Pre-gap length : 00:01:23

CRC32 hash (test run) : A8A65968
CRC32 hash : A8A65968
CRC32 hash (skip zero) : 691960E1
AccurateRip signature : F6663944
->Accurately ripped! (confidence 12)
Statistics
Read error : 0
Skipped (treated as error) : 0
Edge jitter error (maybe fixed) : 0
Atom jitter error (maybe fixed) : 0
Drift error (maybe fixed) : 0
Dropped bytes error (maybe fixed) : 0
Duplicated bytes error (maybe fixed) : 0
Inconsistency in error sectors : 0

Track 09
Filename : /Users/gubarenko/Desktop/Fleetwood Mac – Greatest Hits/09 – Dreams.flac

Pre-gap length : 00:01:00

CRC32 hash (test run) : 8C463E2F
CRC32 hash : 8C463E2F
CRC32 hash (skip zero) : BCD5F4A4
AccurateRip signature : D3E63530
->Accurately ripped! (confidence 13)
Statistics
Read error : 0
Skipped (treated as error) : 0
Edge jitter error (maybe fixed) : 1
Atom jitter error (maybe fixed) : 0
Drift error (maybe fixed) : 0
Dropped bytes error (maybe fixed) : 0
Duplicated bytes error (maybe fixed) : 1
Inconsistency in error sectors : 0

Track 10
Filename : /Users/gubarenko/Desktop/Fleetwood Mac – Greatest Hits/10 – Say You Love Me.flac

Pre-gap length : 00:00:33

CRC32 hash (test run) : 2A75716F
CRC32 hash : 2A75716F
CRC32 hash (skip zero) : FD3CED07
AccurateRip signature : CC6D674D
->Accurately ripped! (confidence 11)
Statistics
Read error : 0
Skipped (treated as error) : 0
Edge jitter error (maybe fixed) : 2
Atom jitter error (maybe fixed) : 0
Drift error (maybe fixed) : 0
Dropped bytes error (maybe fixed) : 1
Duplicated bytes error (maybe fixed) : 2
Inconsistency in error sectors : 0

Track 11
Filename : /Users/gubarenko/Desktop/Fleetwood Mac – Greatest Hits/11 – Tusk.flac

Pre-gap length : 00:00:50

CRC32 hash (test run) : 70626E73
CRC32 hash : 70626E73
CRC32 hash (skip zero) : 8D0843BA
AccurateRip signature : BE2380A4
->Accurately ripped! (confidence 13)
Statistics
Read error : 0
Skipped (treated as error) : 0
Edge jitter error (maybe fixed) : 2
Atom jitter error (maybe fixed) : 1
Drift error (maybe fixed) : 0
Dropped bytes error (maybe fixed) : 1
Duplicated bytes error (maybe fixed) : 1
Inconsistency in error sectors : 0

Track 12
Filename : /Users/gubarenko/Desktop/Fleetwood Mac – Greatest Hits/12 – Little Lies.flac

Pre-gap length : 00:00:40

CRC32 hash (test run) : 51CDAC13
CRC32 hash : 51CDAC13
CRC32 hash (skip zero) : F13EE779
AccurateRip signature : 0C5C0074
->Accurately ripped! (confidence 13)
Statistics
Read error : 0
Skipped (treated as error) : 0
Edge jitter error (maybe fixed) : 2
Atom jitter error (maybe fixed) : 0
Drift error (maybe fixed) : 0
Dropped bytes error (maybe fixed) : 1
Duplicated bytes error (maybe fixed) : 2
Inconsistency in error sectors : 0

Track 13
Filename : /Users/gubarenko/Desktop/Fleetwood Mac – Greatest Hits/13 – Sara.flac

Pre-gap length : 00:01:12

CRC32 hash (test run) : 2F0113D3
CRC32 hash : 2F0113D3
CRC32 hash (skip zero) : 27E9A7C9
AccurateRip signature : F0458EA1
->Accurately ripped! (confidence 13)
Statistics
Read error : 0
Skipped (treated as error) : 0
Edge jitter error (maybe fixed) : 1
Atom jitter error (maybe fixed) : 0
Drift error (maybe fixed) : 0
Dropped bytes error (maybe fixed) : 0
Duplicated bytes error (maybe fixed) : 1
Inconsistency in error sectors : 0

Track 14
Filename : /Users/gubarenko/Desktop/Fleetwood Mac – Greatest Hits/14 – Big Love.flac

Pre-gap length : 00:00:52

CRC32 hash (test run) : 60E6B1BA
CRC32 hash : 60E6B1BA
CRC32 hash (skip zero) : D2ED3632
AccurateRip signature : 37E9F2EF
->Accurately ripped! (confidence 13)
Statistics
Read error : 0
Skipped (treated as error) : 0
Edge jitter error (maybe fixed) : 1
Atom jitter error (maybe fixed) : 1
Drift error (maybe fixed) : 0
Dropped bytes error (maybe fixed) : 0
Duplicated bytes error (maybe fixed) : 0
Inconsistency in error sectors : 0

Track 15
Filename : /Users/gubarenko/Desktop/Fleetwood Mac – Greatest Hits/15 – Over My Head.flac

Pre-gap length : 00:00:65

CRC32 hash (test run) : 1EAD0719
CRC32 hash : 1EAD0719
CRC32 hash (skip zero) : 32A880DF
AccurateRip signature : F588EA90
->Accurately ripped! (confidence 11)
Statistics
Read error : 0
Skipped (treated as error) : 0
Edge jitter error (maybe fixed) : 0
Atom jitter error (maybe fixed) : 0
Drift error (maybe fixed) : 0
Dropped bytes error (maybe fixed) : 0
Duplicated bytes error (maybe fixed) : 0
Inconsistency in error sectors : 0

Track 16
Filename : /Users/gubarenko/Desktop/Fleetwood Mac – Greatest Hits/16 – No Questions Asked.flac

Pre-gap length : 00:00:65

CRC32 hash (test run) : CAECCD8A
CRC32 hash : CAECCD8A
CRC32 hash (skip zero) : 4AF638A8
AccurateRip signature : D4B20BF4
->Accurately ripped! (confidence 11)
Statistics
Read error : 0
Skipped (treated as error) : 0
Edge jitter error (maybe fixed) : 0
Atom jitter error (maybe fixed) : 0
Drift error (maybe fixed) : 0
Dropped bytes error (maybe fixed) : 0
Duplicated bytes error (maybe fixed) : 0
Inconsistency in error sectors : 0

No errors occurred

End of status report


Spread the Download

Leave a Reply

Your email address will not be published. Required fields are marked *

Enter the text from the image below
 

This site uses Akismet to reduce spam. Learn how your comment data is processed.