Five Finger Death Punch – The Wrong Side Of Heaven And The Righteous Side Of Hell, Volume 2




[Total: 0    Average: 0/5]

Artist: Five Finger Death Punch
Year: 2013
Genre: Metal
Notes: Discogs
Add. Notes:
Cover incl.: Yes
Encoder: FLAC
Bitrate: ~1000 kBit/s (44.1 kHz/16 Bit/s)
Log & Cue incl.: Yes
Size: 304,66 MB
Password: “slam” (without ” “)


All Downloads/Hosters are compatible

Download 1
Share-online.biz
KatFile.com
Rapidgator.net
Download 2
Share-online.biz
KatFile.com
Rapidgator.net

Tracklist:

1. Here To Die
2. Weight Beneath My Sin
3. Wrecking Ball
4. Battle Born
5. Cradle To The Grave
6. Matter Of Time
7. The Agony Of Regret
8. Cold
9. Let This Go
10. My Heart Lied
11. A Day In My Life
12. House Of The Rising Sun

EAC-Log, CUE-Sheed & NFO:

Click to open spoiler
Exact Audio Copy V1.0 beta 3 from 29. August 2011

EAC extraction logfile from 9. December 2013, 0:44

Five Finger Death Punch / The Wrong Side of Heaven and The Righteous Side of Hell Vol. 2

Used drive : PLEXTOR BD-R PX-B940SA Adapter: 0 ID: 5

Read mode : Secure
Utilize accurate stream : Yes
Defeat audio cache : Yes
Make use of C2 pointers : No

Read offset correction : 667
Overread into Lead-In and Lead-Out : No
Fill up missing offset samples with silence : Yes
Delete leading and trailing silent blocks : No
Null samples used in CRC calculations : Yes
Used interface : Installed external ASPI interface

Used output format : User Defined Encoder
Selected bitrate : 1024 kBit/s
Quality : High
Add ID3 tag : Yes
Command line compressor : E:\Program Files (x86)\Exact Audio Copy\Flac\flac.exe
Additional command line options : -V -8 -T “Date=%year%” -T “Genre=%genre%” %source%

TOC of the extracted CD

Track | Start | Length | Start sector | End sector
———————————————————
1 | 0:00.00 | 3:00.02 | 0 | 13501
2 | 3:00.02 | 3:36.64 | 13502 | 29765
3 | 6:36.66 | 3:13.26 | 29766 | 44266
4 | 9:50.17 | 3:43.58 | 44267 | 61049
5 | 13:34.00 | 3:18.42 | 61050 | 75941
6 | 16:52.42 | 3:16.02 | 75942 | 90643
7 | 20:08.44 | 1:42.56 | 90644 | 98349
8 | 21:51.25 | 3:47.52 | 98350 | 115426
9 | 25:39.02 | 3:16.33 | 115427 | 130159
10 | 28:55.35 | 3:35.05 | 130160 | 146289
11 | 32:30.40 | 3:44.24 | 146290 | 163113
12 | 36:14.64 | 4:07.29 | 163114 | 181667

Range status and errors

Selected range

Filename D:\MUSIC\Five Finger Death Punch – The Wrong Side of Heaven and The Righteous Side of Hell Vol. 2.wav

Peak level 98.8 %
Extraction speed 3.9 X
Range quality 99.9 %
Test CRC 8F7BB51B
Copy CRC 8F7BB51B
Copy OK

No errors occurred

AccurateRip summary

Track 1 cannot be verified as accurate (confidence 8) [B125E176], AccurateRip returned [60E26634] (AR v2)
Track 2 cannot be verified as accurate (confidence 8) [751A48F6], AccurateRip returned [30BB0069] (AR v2)
Track 3 cannot be verified as accurate (confidence 8) [E1BE7A49], AccurateRip returned [D0FECAB0] (AR v2)
Track 4 cannot be verified as accurate (confidence 8) [9AD1E427], AccurateRip returned [186B37B6] (AR v2)
Track 5 cannot be verified as accurate (confidence 8) [F1C8C1D6], AccurateRip returned [14065455] (AR v2)
Track 6 cannot be verified as accurate (confidence 8) [84DBE166], AccurateRip returned [BFF52A3E] (AR v2)
Track 7 cannot be verified as accurate (confidence 8) [8E7FDB33], AccurateRip returned [7389B6E8] (AR v2)
Track 8 cannot be verified as accurate (confidence 8) [378DC5DC], AccurateRip returned [A3B56950] (AR v2)
Track 9 cannot be verified as accurate (confidence 8) [37F7FB6F], AccurateRip returned [DEAFD4AF] (AR v2)
Track 10 cannot be verified as accurate (confidence 8) [6B016AEA], AccurateRip returned [E76D2213] (AR v2)
Track 11 cannot be verified as accurate (confidence 8) [630F11F0], AccurateRip returned [B82B33D9] (AR v2)
Track 12 cannot be verified as accurate (confidence 8) [B68B9443], AccurateRip returned [7EAB866A] (AR v2)

No tracks could be verified as accurate
You may have a different pressing from the one(s) in the database

End of status report

==== Log checksum DEFEF38DFFFB131D90591EF88C0A3A047EC4D76593DEFAC39BF1D84089842944 ====

REM GENRE Metal
REM DATE 2013
REM DISCID 9009760C
REM COMMENT “ExactAudioCopy v1.0b3”
CATALOG 0813985011592
PERFORMER “Five Finger Death Punch”
TITLE “The Wrong Side of Heaven and The Righteous Side of Hell Vol. 2”
FILE “Five Finger Death Punch – The Wrong Side of Heaven and The Righteous Side of Hell Vol. 2.flac” WAVE
TRACK 01 AUDIO
TITLE “Here to Die”
PERFORMER “Five Finger Death Punch”
ISRC US5Z51300405
INDEX 01 00:00:00
TRACK 02 AUDIO
TITLE “Weight Beneath My Sin”
PERFORMER “Five Finger Death Punch”
ISRC US5Z51300406
INDEX 00 02:59:02
INDEX 01 03:00:02
TRACK 03 AUDIO
TITLE “Wrecking Ball”
PERFORMER “Five Finger Death Punch”
ISRC US5Z51300407
INDEX 01 06:36:66
TRACK 04 AUDIO
TITLE “Battle Born”
PERFORMER “Five Finger Death Punch”
ISRC US5Z51300408
INDEX 01 09:50:17
TRACK 05 AUDIO
TITLE “Cradle to the Grave”
PERFORMER “Five Finger Death Punch”
ISRC US5Z51300409
INDEX 01 13:34:00
TRACK 06 AUDIO
TITLE “Matter of Time”
PERFORMER “Five Finger Death Punch”
ISRC US5Z51300410
INDEX 00 16:52:05
INDEX 01 16:52:42
TRACK 07 AUDIO
TITLE “The Agony of Regret”
PERFORMER “Five Finger Death Punch”
ISRC US5Z51300411
INDEX 01 20:08:44
TRACK 08 AUDIO
TITLE “Cold”
PERFORMER “Five Finger Death Punch”
ISRC US5Z51300412
INDEX 00 21:50:25
INDEX 01 21:51:25
TRACK 09 AUDIO
TITLE “Let This Go”
PERFORMER “Five Finger Death Punch”
ISRC US5Z51300413
INDEX 01 25:39:02
TRACK 10 AUDIO
TITLE “My Heart Lied”
PERFORMER “Five Finger Death Punch”
ISRC US5Z51300414
INDEX 01 28:55:35
TRACK 11 AUDIO
TITLE “A Day in My Life”
PERFORMER “Five Finger Death Punch”
ISRC US5Z51300415
INDEX 01 32:30:40
TRACK 12 AUDIO
TITLE “House of The Rising Sun”
PERFORMER “Five Finger Death Punch”
ISRC US5Z51300416
INDEX 01 36:14:64


Spread the Download

Leave a Reply

Your email address will not be published. Required fields are marked *

Enter the text from the image below
 

This site uses Akismet to reduce spam. Learn how your comment data is processed.