Five Finger Death Punch – The Wrong Side Of Heaven And The Righteous Side Of Hell, Volume 1




[Total: 0    Average: 0/5]

Artist: Five Finger Death Punch
Year: 2013
Genre: Metal
Notes: Discogs
Add. Notes:
Cover incl.: Yes
Encoder: FLAC
Bitrate: ~1000 kBit/s (44.1 kHz/16 Bit/s)
Log & Cue incl.: Yes
Size: 886,53 MB
Password: “slam” (without ” “)


All Downloads/Hosters are compatible

Download 1
Share-online.biz
KatFile.com
Rapidgator.net
Download 2
Share-online.biz
KatFile.com
Rapidgator.net

Tracklist:

1-1 - Lift Me Up - 4:07
1-2 - Watch You Bleed - 3:43
1-3 - You - 3:04
1-4 - Wrong Side Of Heaven - 4:32
1-5 - Burn MF - 3:38
1-6 - I.M.SIN - 3:39
1-7 - Anywhere But Here - 3:46
1-8 - Dot Your Eyes - 3:15
1-9 - M.I.N.E ( End This Way ) - 4:06
1-10 - Mama Said Knock You Out - 2:48
1-11 - Diary Of A Deadman - 4:45
1-12 - I.M.SIN - 3:39
1-13 - Anywhere But Here - 3:46
1-14 - Dot Your Eyes - 3:15

Purgatory (Tales From The Pit)
2-1 - Intro - 1:00
2-2 - Under & Over It - 4:10
2-3 - Burn It Down - 4:07
2-4 - American Capitalist - 3:34
2-5 - Hard To See - 3:47
2-6 - Coming Down - 5:07
2-7 - Bad Company - 4:57
2-8 - White Knuckles - 10:01
2-9 - Drum Solo - 4:17
2-10 - Far From Home - 2:29
2-11 - Never Enough - 3:42
2-12 - War Is The Answer - 5:45
2-13 - Remember Everything - 5:15
2-14 - No One Gets Left Behind - 3:50
2-15 - The Bleeding - 7:17

EAC-Log, CUE-Sheed & NFO:

Click to open spoiler
Exact Audio Copy V1.0 beta 3 from 29. August 2011

EAC extraction logfile from 26. July 2013, 11:11

Five Finger Death Punch / Purgatory [Tales From The Pit]

Used drive : HP DVD Writer 1170d Adapter: 2 ID: 0

Read mode : Secure
Utilize accurate stream : Yes
Defeat audio cache : Yes
Make use of C2 pointers : No

Read offset correction : 6
Overread into Lead-In and Lead-Out : No
Fill up missing offset samples with silence : Yes
Delete leading and trailing silent blocks : No
Null samples used in CRC calculations : Yes
Used interface : Native Win32 interface for Win NT & 2000

Used output format : User Defined Encoder
Selected bitrate : 1024 kBit/s
Quality : High
Add ID3 tag : No
Command line compressor : C:\Program Files\Exact Audio Copy\FLAC\FLAC.EXE
Additional command line options : -V -8 -T “Date=%year%” -T “Genre=%genre%” -T”COMMENT=Ripped by Ungern666″ -8 -V %source%

TOC of the extracted CD

Track | Start | Length | Start sector | End sector
———————————————————
1 | 0:00.00 | 1:00.22 | 0 | 4521
2 | 1:00.22 | 4:09.48 | 4522 | 23244
3 | 5:09.70 | 4:07.34 | 23245 | 41803
4 | 9:17.29 | 3:33.71 | 41804 | 57849
5 | 12:51.25 | 3:46.74 | 57850 | 74873
6 | 16:38.24 | 5:07.16 | 74874 | 97914
7 | 21:45.40 | 4:57.05 | 97915 | 120194
8 | 26:42.45 | 10:00.56 | 120195 | 165250
9 | 36:43.26 | 4:16.43 | 165251 | 184493
10 | 40:59.69 | 2:29.01 | 184494 | 195669
11 | 43:28.70 | 3:42.28 | 195670 | 212347
12 | 47:11.23 | 5:44.46 | 212348 | 238193
13 | 52:55.69 | 5:14.50 | 238194 | 261793
14 | 58:10.44 | 3:49.64 | 261794 | 279032
15 | 62:00.33 | 7:16.69 | 279033 | 311801

Range status and errors

Selected range

Filename C:\EAC\Ungern666\Five Finger Death Punch – Purgatory [Tales From The Pit].wav

Peak level 98.8 %
Extraction speed 4.6 X
Range quality 100.0 %
Test CRC 4A186B95
Copy CRC 4A186B95
Copy OK

No errors occurred

AccurateRip summary

Track 1 not present in database
Track 2 not present in database
Track 3 not present in database
Track 4 not present in database
Track 5 not present in database
Track 6 not present in database
Track 7 not present in database
Track 8 not present in database
Track 9 not present in database
Track 10 not present in database
Track 11 not present in database
Track 12 not present in database
Track 13 not present in database
Track 14 not present in database
Track 15 not present in database

None of the tracks are present in the AccurateRip database

End of status report

—- CUETools DB Plugin V2.1.5

[CTDB TOCID: mz8xQBKC71i5xSG6i.8Z0_Irvnc-] found
Submit result: mz8xQBKC71i5xSG6i.8Z0_Irvnc- has been confirmed
Track | CTDB Status
1 | (1/1) Accurately ripped
2 | (1/1) Accurately ripped
3 | (1/1) Accurately ripped
4 | (1/1) Accurately ripped
5 | (1/1) Accurately ripped
6 | (1/1) Accurately ripped
7 | (1/1) Accurately ripped
8 | (1/1) Accurately ripped
9 | (1/1) Accurately ripped
10 | (1/1) Accurately ripped
11 | (1/1) Accurately ripped
12 | (1/1) Accurately ripped
13 | (1/1) Accurately ripped
14 | (1/1) Accurately ripped
15 | (1/1) Accurately ripped

==== Log checksum 40C5760237479244BC1573565A54B1B5141E555470F7E522A0FFFEDA6B29ED55 ====

Exact Audio Copy V1.0 beta 3 from 29. August 2011

EAC extraction logfile from 26. July 2013, 10:37

Five Finger Death Punch / The Wrong Side Of Heaven and The Righteous Side Of Hell Volume 1

Used drive : HP DVD Writer 1170d Adapter: 2 ID: 0

Read mode : Secure
Utilize accurate stream : Yes
Defeat audio cache : Yes
Make use of C2 pointers : No

Read offset correction : 6
Overread into Lead-In and Lead-Out : No
Fill up missing offset samples with silence : Yes
Delete leading and trailing silent blocks : No
Null samples used in CRC calculations : Yes
Used interface : Native Win32 interface for Win NT & 2000

Used output format : User Defined Encoder
Selected bitrate : 1024 kBit/s
Quality : High
Add ID3 tag : No
Command line compressor : C:\Program Files\Exact Audio Copy\FLAC\FLAC.EXE
Additional command line options : -V -8 -T “Date=%year%” -T “Genre=%genre%” -T”COMMENT=Ripped by Ungern666″ -8 -V %source%

TOC of the extracted CD

Track | Start | Length | Start sector | End sector
———————————————————
1 | 0:00.00 | 4:06.48 | 0 | 18497
2 | 4:06.48 | 3:43.28 | 18498 | 35250
3 | 7:50.01 | 3:03.72 | 35251 | 49047
4 | 10:53.73 | 4:31.57 | 49048 | 69429
5 | 15:25.55 | 3:37.63 | 69430 | 85767
6 | 19:03.43 | 3:39.02 | 85768 | 102194
7 | 22:42.45 | 3:45.58 | 102195 | 119127
8 | 26:28.28 | 3:15.15 | 119128 | 133767
9 | 29:43.43 | 4:06.23 | 133768 | 152240
10 | 33:49.66 | 2:47.38 | 152241 | 164803
11 | 36:37.29 | 4:44.69 | 164804 | 186172
12 | 41:22.23 | 3:39.13 | 186173 | 202610
13 | 45:01.36 | 3:46.03 | 202611 | 219563
14 | 48:47.39 | 3:15.07 | 219564 | 234195

Range status and errors

Selected range

Filename C:\EAC\Ungern666\Five Finger Death Punch – The Wrong Side Of Heaven and The Righteous Side Of Hell Volume 1.wav

Peak level 98.8 %
Extraction speed 5.7 X
Range quality 100.0 %
Test CRC A81BFAE1
Copy CRC A81BFAE1
Copy OK

No errors occurred

AccurateRip summary

Track 1 not present in database
Track 2 not present in database
Track 3 not present in database
Track 4 not present in database
Track 5 not present in database
Track 6 not present in database
Track 7 not present in database
Track 8 not present in database
Track 9 not present in database
Track 10 not present in database
Track 11 not present in database
Track 12 not present in database
Track 13 not present in database
Track 14 not present in database

None of the tracks are present in the AccurateRip database

End of status report

—- CUETools DB Plugin V2.1.5

[CTDB TOCID: Wg3piqwKeWxAScp4ZGUiN6tqp_k-] found
Submit result: Wg3piqwKeWxAScp4ZGUiN6tqp_k- has been confirmed
Track | CTDB Status
1 | (3/3) Accurately ripped
2 | (3/3) Accurately ripped
3 | (3/3) Accurately ripped
4 | (3/3) Accurately ripped
5 | (3/3) Accurately ripped
6 | (3/3) Accurately ripped
7 | (3/3) Accurately ripped
8 | (3/3) Accurately ripped
9 | (3/3) Accurately ripped
10 | (3/3) Accurately ripped
11 | (3/3) Accurately ripped
12 | (3/3) Accurately ripped
13 | (3/3) Accurately ripped
14 | (3/3) Accurately ripped

==== Log checksum 9E875872EB0A8236E58B3DA159710D99FBE2C795DC698E4A1765556C25EE2757 ====

REM DATE 2013
REM DISCID AB103D0F
REM COMMENT “ExactAudioCopy v1.0b3”
PERFORMER “Five Finger Death Punch”
TITLE “Purgatory [Tales From The Pit]”
FILE “Five Finger Death Punch – Purgatory [Tales From The Pit].flac” WAVE
TRACK 01 AUDIO
TITLE “Intro”
PERFORMER “Five Finger Death Punch”
INDEX 01 00:00:00
TRACK 02 AUDIO
TITLE “Under And Over It”
PERFORMER “Five Finger Death Punch”
INDEX 01 01:00:22
TRACK 03 AUDIO
TITLE “Burn It Down”
PERFORMER “Five Finger Death Punch”
INDEX 01 05:09:70
TRACK 04 AUDIO
TITLE “American Capitalist”
PERFORMER “Five Finger Death Punch”
INDEX 01 09:17:29
TRACK 05 AUDIO
TITLE “Hard To See”
PERFORMER “Five Finger Death Punch”
INDEX 01 12:51:25
TRACK 06 AUDIO
TITLE “Coming Down”
PERFORMER “Five Finger Death Punch”
INDEX 01 16:38:24
TRACK 07 AUDIO
TITLE “Bad Company”
PERFORMER “Five Finger Death Punch”
INDEX 01 21:45:40
TRACK 08 AUDIO
TITLE “White Knuckles”
PERFORMER “Five Finger Death Punch”
INDEX 01 26:42:45
TRACK 09 AUDIO
TITLE “Drum Solo”
PERFORMER “Five Finger Death Punch”
INDEX 01 36:43:26
TRACK 10 AUDIO
TITLE “Far From Home”
PERFORMER “Five Finger Death Punch”
INDEX 01 40:59:69
TRACK 11 AUDIO
TITLE “Never Enough”
PERFORMER “Five Finger Death Punch”
INDEX 01 43:28:70
TRACK 12 AUDIO
TITLE “War Is The Answer”
PERFORMER “Five Finger Death Punch”
INDEX 01 47:11:23
TRACK 13 AUDIO
TITLE “Remember Everything”
PERFORMER “Five Finger Death Punch”
INDEX 01 52:55:69
TRACK 14 AUDIO
TITLE “No One Gets Left Behind”
PERFORMER “Five Finger Death Punch”
INDEX 01 58:10:44
TRACK 15 AUDIO
TITLE “The Bleeding”
PERFORMER “Five Finger Death Punch”
INDEX 01 62:00:33

REM DATE 2013
REM DISCID CB0C320E
REM COMMENT “ExactAudioCopy v1.0b3”
PERFORMER “Five Finger Death Punch”
TITLE “The Wrong Side Of Heaven and The Righteous Side Of Hell Volume 1”
FILE “Five Finger Death Punch – The Wrong Side Of Heaven and The Righteous Side Of Hell Volume 1.flac” WAVE
TRACK 01 AUDIO
TITLE “Lift Me Up (featuring Rob Halford of Judas Priest)”
PERFORMER “Five Finger Death Punch”
INDEX 01 00:00:00
TRACK 02 AUDIO
TITLE “Watch You Bleed”
PERFORMER “Five Finger Death Punch”
INDEX 00 04:06:16
INDEX 01 04:06:48
TRACK 03 AUDIO
TITLE “You”
PERFORMER “Five Finger Death Punch”
INDEX 00 07:49:70
INDEX 01 07:50:01
TRACK 04 AUDIO
TITLE “Wrong Side Of Heaven”
PERFORMER “Five Finger Death Punch”
INDEX 00 10:52:25
INDEX 01 10:53:73
TRACK 05 AUDIO
TITLE “Burn MF”
PERFORMER “Five Finger Death Punch”
INDEX 00 15:24:74
INDEX 01 15:25:55
TRACK 06 AUDIO
TITLE “I.M.Sin”
PERFORMER “Five Finger Death Punch”
INDEX 01 19:03:43
TRACK 07 AUDIO
TITLE “Anywhere But Here (featuring Maria Brink)”
PERFORMER “Five Finger Death Punch”
INDEX 01 22:42:45
TRACK 08 AUDIO
TITLE “Dot Your Eyes”
PERFORMER “Five Finger Death Punch”
INDEX 00 26:28:22
INDEX 01 26:28:28
TRACK 09 AUDIO
TITLE “M.I.N.E (End This Way)”
PERFORMER “Five Finger Death Punch”
INDEX 00 29:43:36
INDEX 01 29:43:43
TRACK 10 AUDIO
TITLE “Mama Said Knock You Out (featuring Tech N9ne)”
PERFORMER “Five Finger Death Punch”
INDEX 00 33:49:40
INDEX 01 33:49:66
TRACK 11 AUDIO
TITLE “Diary Of A Deadman”
PERFORMER “Five Finger Death Punch”
INDEX 01 36:37:29
TRACK 12 AUDIO
TITLE “I.M.Sin (featuring Max Cavalera)”
PERFORMER “Five Finger Death Punch”
INDEX 00 41:18:22
INDEX 01 41:22:23
TRACK 13 AUDIO
TITLE “Anywhere But Here (Duet with Maria Brink of In This Moment)”
PERFORMER “Five Finger Death Punch”
INDEX 00 45:01:25
INDEX 01 45:01:36
TRACK 14 AUDIO
TITLE “Dot Your Eyes (featuring Jamey Jasta)”
PERFORMER “Five Finger Death Punch”
INDEX 00 48:47:14
INDEX 01 48:47:39


Spread the Download

Leave a Reply

Your email address will not be published. Required fields are marked *

Enter the text from the image below
 

This site uses Akismet to reduce spam. Learn how your comment data is processed.