Five Finger Death Punch – Got Your Six (Deluxe Edition)




Artist: Five Finger Death Punch
Year: 2015
Genre: Metal
Notes: Discogs
Add. Notes: Deluxe Edition
Cover incl.: Yes
Encoder: FLAC
Bitrate: ~1000 kBit/s (44.1 kHz/16 Bit/s)
Log & Cue incl.: Yes
Size: 312,9 MB
Password: “slam” (without ” “)


All Downloads/Hosters are compatible

Download 1
Turbobit.net
NitroFlare.com
KatFile.com
Rapidgator.net
Usersdrive.com
Download 2
Turbobit.net
NitroFlare.com
KatFile.com
Rapidgator.net
Usersdrive.com

Tracklist:

1 - Got Your Six - 2:59
2 - Jekyll And Hyde - 3:27
3 - Wash It All Away - 3:45
4 - Ain't My Last Dance - 3:29
5 - My Nemesis - 3:36
6 - No Sudden Movement - 3:21
7 - Question Everything - 5:11
8 - Hell To Pay - 3:09
9 - Digging My Own Grave - 3:47
10 - Meet My Maker - 3:00
11 - Boots And Blood - 2:45
12 - You're Not My Kind - 3:21
13 - This is My War - 2:55
14 - I Apologize - 4:02
15 - Untitled - 2:02

EAC-Log, CUE-Sheed & NFO:

Click to open spoiler
X Lossless Decoder version 20141129 (148.1)

XLD extraction logfile from 2015-09-02 22:40:28 +0200

Five Finger Death Punch / Got Your Six

Used drive : MATSHITA DVD-R UJ-8A8 (revision HB14)
Media type : Pressed CD

Ripper mode : XLD Secure Ripper
Disable audio cache : OK for the drive with a cache less than 1375KiB
Make use of C2 pointers : NO
Read offset correction : 102
Max retry count : 20
Gap status : Analyzed, Appended (except HTOA)

TOC of the extracted CD
Track | Start | Length | Start sector | End sector
———————————————————
1 | 00:00:00 | 02:58:07 | 0 | 13356
2 | 02:58:07 | 03:26:68 | 13357 | 28874
3 | 06:25:00 | 03:44:68 | 28875 | 45742
4 | 10:09:68 | 03:29:00 | 45743 | 61417
5 | 13:38:68 | 03:35:66 | 61418 | 77608
6 | 17:14:59 | 03:21:07 | 77609 | 92690
7 | 20:35:66 | 05:05:56 | 92691 | 115621
8 | 25:41:47 | 03:08:50 | 115622 | 129771
9 | 28:50:22 | 03:47:18 | 129772 | 146814
10 | 32:37:40 | 03:00:00 | 146815 | 160314
11 | 35:37:40 | 02:45:65 | 160315 | 172754
12 | 38:23:30 | 03:21:22 | 172755 | 187851
13 | 41:44:52 | 02:55:30 | 187852 | 201006
14 | 44:40:07 | 04:04:72 | 201007 | 219378
15 | 48:45:04 | 02:01:64 | 219379 | 228517

AccurateRip Summary
Disc not found in AccurateRip DB.

All Tracks
Album gain : -10.13 dB
Peak : 0.988586
Statistics
Read error : 0
Jitter error (maybe fixed) : 0
Retry sector count : 0
Damaged sector count : 0

Track 01
Filename : /Users/Shared/01 Got Your Six.flac
Pre-gap length : 00:02:00

Track gain : -8.87 dB
Peak : 0.988586
CRC32 hash (test run) : 5139E6C1
CRC32 hash : 5139E6C1
CRC32 hash (skip zero) : 8C02FA3F
AccurateRip v1 signature : 032AEA33
AccurateRip v2 signature : 9A0FCA05
->Track not present in AccurateRip database.
Statistics
Read error : 0
Jitter error (maybe fixed) : 0
Retry sector count : 0
Damaged sector count : 0

Track 02
Filename : /Users/Shared/02 Jekyll and Hyde.flac

Track gain : -10.23 dB
Peak : 0.988586
CRC32 hash (test run) : BCC7C5A1
CRC32 hash : BCC7C5A1
CRC32 hash (skip zero) : 86A8D9B7
AccurateRip v1 signature : 4BFEA7E7
AccurateRip v2 signature : DC62A758
->Track not present in AccurateRip database.
Statistics
Read error : 0
Jitter error (maybe fixed) : 0
Retry sector count : 0
Damaged sector count : 0

Track 03
Filename : /Users/Shared/03 Wash It All Away.flac

Track gain : -10.34 dB
Peak : 0.988586
CRC32 hash (test run) : B3C5D288
CRC32 hash : B3C5D288
CRC32 hash (skip zero) : BB43DDDF
AccurateRip v1 signature : 74B312B9
AccurateRip v2 signature : 676622A7
->Track not present in AccurateRip database.
Statistics
Read error : 0
Jitter error (maybe fixed) : 0
Retry sector count : 0
Damaged sector count : 0

Track 04
Filename : /Users/Shared/04 Ain’t My Last Dance.flac

Track gain : -10.28 dB
Peak : 0.988586
CRC32 hash (test run) : 975964D8
CRC32 hash : 975964D8
CRC32 hash (skip zero) : 630D177D
AccurateRip v1 signature : B3C0CAD0
AccurateRip v2 signature : 54EC9DD4
->Track not present in AccurateRip database.
Statistics
Read error : 0
Jitter error (maybe fixed) : 0
Retry sector count : 0
Damaged sector count : 0

Track 05
Filename : /Users/Shared/05 My Nemesis.flac

Track gain : -11.81 dB
Peak : 0.988586
CRC32 hash (test run) : 84BE70F1
CRC32 hash : 84BE70F1
CRC32 hash (skip zero) : B85B7662
AccurateRip v1 signature : 4FF103E5
AccurateRip v2 signature : 9227D91E
->Track not present in AccurateRip database.
Statistics
Read error : 0
Jitter error (maybe fixed) : 0
Retry sector count : 0
Damaged sector count : 0

Track 06
Filename : /Users/Shared/06 No Sudden Movement.flac

Track gain : -9.03 dB
Peak : 0.988586
CRC32 hash (test run) : 2F0C570F
CRC32 hash : 2F0C570F
CRC32 hash (skip zero) : BFC2602D
AccurateRip v1 signature : 61692267
AccurateRip v2 signature : 73617C02
->Track not present in AccurateRip database.
Statistics
Read error : 0
Jitter error (maybe fixed) : 0
Retry sector count : 0
Damaged sector count : 0

Track 07
Filename : /Users/Shared/07 Question Everything.flac

Track gain : -9.49 dB
Peak : 0.988586
CRC32 hash (test run) : 50094A68
CRC32 hash : 50094A68
CRC32 hash (skip zero) : F70BB322
AccurateRip v1 signature : 1C099B66
AccurateRip v2 signature : 41671976
->Track not present in AccurateRip database.
Statistics
Read error : 0
Jitter error (maybe fixed) : 0
Retry sector count : 0
Damaged sector count : 0

Track 08
Filename : /Users/Shared/08 Hell to Pay.flac

Track gain : -9.99 dB
Peak : 0.988586
CRC32 hash (test run) : 4005C5AD
CRC32 hash : 4005C5AD
CRC32 hash (skip zero) : F8872D58
AccurateRip v1 signature : 2CF31251
AccurateRip v2 signature : 569801D2
->Track not present in AccurateRip database.
Statistics
Read error : 0
Jitter error (maybe fixed) : 0
Retry sector count : 0
Damaged sector count : 0

Track 09
Filename : /Users/Shared/09 Digging My Own Grave.flac
Pre-gap length : 00:01:00

Track gain : -9.12 dB
Peak : 0.988586
CRC32 hash (test run) : 05929605
CRC32 hash : 05929605
CRC32 hash (skip zero) : DD842084
AccurateRip v1 signature : 77124DD5
AccurateRip v2 signature : 89E99047
->Track not present in AccurateRip database.
Statistics
Read error : 0
Jitter error (maybe fixed) : 0
Retry sector count : 0
Damaged sector count : 0

Track 10
Filename : /Users/Shared/10 Meet My Maker.flac

Track gain : -10.00 dB
Peak : 0.988586
CRC32 hash (test run) : 9285B9A8
CRC32 hash : 9285B9A8
CRC32 hash (skip zero) : 42B62733
AccurateRip v1 signature : 31C25E40
AccurateRip v2 signature : 2FC210BA
->Track not present in AccurateRip database.
Statistics
Read error : 0
Jitter error (maybe fixed) : 0
Retry sector count : 0
Damaged sector count : 0

Track 11
Filename : /Users/Shared/11 Boots and Blood.flac

Track gain : -9.50 dB
Peak : 0.988586
CRC32 hash (test run) : C84A8604
CRC32 hash : C84A8604
CRC32 hash (skip zero) : 24470DC6
AccurateRip v1 signature : 05CBE085
AccurateRip v2 signature : C0CD4212
->Track not present in AccurateRip database.
Statistics
Read error : 0
Jitter error (maybe fixed) : 0
Retry sector count : 0
Damaged sector count : 0

Track 12
Filename : /Users/Shared/12 You’re Not My Kind.flac

Track gain : -9.48 dB
Peak : 0.988586
CRC32 hash (test run) : A1F0287B
CRC32 hash : A1F0287B
CRC32 hash (skip zero) : 8C193F0F
AccurateRip v1 signature : 3BF83517
AccurateRip v2 signature : 83CDABD8
->Track not present in AccurateRip database.
Statistics
Read error : 0
Jitter error (maybe fixed) : 0
Retry sector count : 0
Damaged sector count : 0

Track 13
Filename : /Users/Shared/13 This is My War.flac

Track gain : -9.48 dB
Peak : 0.988586
CRC32 hash (test run) : 1549EA6B
CRC32 hash : 1549EA6B
CRC32 hash (skip zero) : D4FD2ED1
AccurateRip v1 signature : 30B9B0E8
AccurateRip v2 signature : EAEC3CA9
->Track not present in AccurateRip database.
Statistics
Read error : 0
Jitter error (maybe fixed) : 0
Retry sector count : 0
Damaged sector count : 0

Track 14
Filename : /Users/Shared/14 I Apologize.flac

Track gain : -9.61 dB
Peak : 0.988586
CRC32 hash (test run) : 302ECBE7
CRC32 hash : 302ECBE7
CRC32 hash (skip zero) : EE7B9C67
AccurateRip v1 signature : 844DD65F
AccurateRip v2 signature : BD594592
->Track not present in AccurateRip database.
Statistics
Read error : 0
Jitter error (maybe fixed) : 0
Retry sector count : 0
Damaged sector count : 0

Track 15
Filename : /Users/Shared/15 (Unlisted Track).flac
Pre-gap length : 00:02:00

Track gain : -0.34 dB
Peak : 0.911987
CRC32 hash (test run) : 89B7AF9A
CRC32 hash : 89B7AF9A
CRC32 hash (skip zero) : 0F10D2D4
AccurateRip v1 signature : 0EBF7547
AccurateRip v2 signature : 7135FF5E
->Track not present in AccurateRip database.
Statistics
Read error : 0
Jitter error (maybe fixed) : 0
Retry sector count : 0
Damaged sector count : 0

No errors occurred

End of status report

—–BEGIN XLD SIGNATURE—–
KWhXNY5vLobGtwojeNAWsb_W_K7FhAHfEC8fTkvJuwNVVZcO9kzYY9n2Zo4P3kA2bpBNxWOsEkVnrEPXu.6FN6qHESgIzkMurFSpxmS
—–END XLD SIGNATURE—–

TITLE “Got Your Six”
PERFORMER “Five Finger Death Punch”
CATALOG 0813985012735
REM GENRE “Metal”
REM DATE “2015”
REM DISCNUMBER 1
REM TOTALDISCS 1
REM DISCID C40BE60F
REM REPLAYGAIN_ALBUM_GAIN -10.13 dB
REM REPLAYGAIN_ALBUM_PEAK 0.988586
FILE “01 Got Your Six.flac” WAVE
TRACK 01 AUDIO
TITLE “Got Your Six”
ISRC US5Z51500623
REM REPLAYGAIN_TRACK_GAIN -8.87 dB
REM REPLAYGAIN_TRACK_PEAK 0.988586
INDEX 01 00:00:00
FILE “02 Jekyll and Hyde.flac” WAVE
TRACK 02 AUDIO
TITLE “Jekyll and Hyde”
ISRC US5Z51500620
REM REPLAYGAIN_TRACK_GAIN -10.23 dB
REM REPLAYGAIN_TRACK_PEAK 0.988586
INDEX 01 00:00:00
FILE “03 Wash It All Away.flac” WAVE
TRACK 03 AUDIO
TITLE “Wash It All Away”
ISRC US5Z51500624
REM REPLAYGAIN_TRACK_GAIN -10.34 dB
REM REPLAYGAIN_TRACK_PEAK 0.988586
INDEX 01 00:00:00
FILE “04 Ain’t My Last Dance.flac” WAVE
TRACK 04 AUDIO
TITLE “Ain’t My Last Dance”
ISRC US5Z51500625
REM REPLAYGAIN_TRACK_GAIN -10.28 dB
REM REPLAYGAIN_TRACK_PEAK 0.988586
INDEX 01 00:00:00
FILE “05 My Nemesis.flac” WAVE
TRACK 05 AUDIO
TITLE “My Nemesis”
ISRC US5Z51500626
REM REPLAYGAIN_TRACK_GAIN -11.81 dB
REM REPLAYGAIN_TRACK_PEAK 0.988586
INDEX 01 00:00:00
FILE “06 No Sudden Movement.flac” WAVE
TRACK 06 AUDIO
TITLE “No Sudden Movement”
ISRC US5Z51500627
REM REPLAYGAIN_TRACK_GAIN -9.03 dB
REM REPLAYGAIN_TRACK_PEAK 0.988586
INDEX 01 00:00:00
FILE “07 Question Everything.flac” WAVE
TRACK 07 AUDIO
TITLE “Question Everything”
ISRC US5Z51500628
REM REPLAYGAIN_TRACK_GAIN -9.49 dB
REM REPLAYGAIN_TRACK_PEAK 0.988586
INDEX 01 00:00:00
FILE “08 Hell to Pay.flac” WAVE
TRACK 08 AUDIO
TITLE “Hell to Pay”
ISRC US5Z51500629
REM REPLAYGAIN_TRACK_GAIN -9.99 dB
REM REPLAYGAIN_TRACK_PEAK 0.988586
INDEX 01 00:00:00
TRACK 09 AUDIO
TITLE “Digging My Own Grave”
ISRC US5Z51500630
REM REPLAYGAIN_TRACK_GAIN -9.12 dB
REM REPLAYGAIN_TRACK_PEAK 0.988586
INDEX 00 03:07:50
FILE “09 Digging My Own Grave.flac” WAVE
INDEX 01 00:00:00
FILE “10 Meet My Maker.flac” WAVE
TRACK 10 AUDIO
TITLE “Meet My Maker”
ISRC US5Z51500631
REM REPLAYGAIN_TRACK_GAIN -10.00 dB
REM REPLAYGAIN_TRACK_PEAK 0.988586
INDEX 01 00:00:00
FILE “11 Boots and Blood.flac” WAVE
TRACK 11 AUDIO
TITLE “Boots and Blood”
ISRC US5Z51500632
REM REPLAYGAIN_TRACK_GAIN -9.50 dB
REM REPLAYGAIN_TRACK_PEAK 0.988586
INDEX 01 00:00:00
FILE “12 You’re Not My Kind.flac” WAVE
TRACK 12 AUDIO
TITLE “You’re Not My Kind”
ISRC US5Z51500633
REM REPLAYGAIN_TRACK_GAIN -9.48 dB
REM REPLAYGAIN_TRACK_PEAK 0.988586
INDEX 01 00:00:00
FILE “13 This is My War.flac” WAVE
TRACK 13 AUDIO
TITLE “This is My War”
ISRC US5Z51500634
REM REPLAYGAIN_TRACK_GAIN -9.48 dB
REM REPLAYGAIN_TRACK_PEAK 0.988586
INDEX 01 00:00:00
FILE “14 I Apologize.flac” WAVE
TRACK 14 AUDIO
TITLE “I Apologize”
ISRC US5Z51500635
REM REPLAYGAIN_TRACK_GAIN -9.61 dB
REM REPLAYGAIN_TRACK_PEAK 0.988586
INDEX 01 00:00:00
TRACK 15 AUDIO
TITLE “(Unlisted Track)”
REM REPLAYGAIN_TRACK_GAIN -0.34 dB
REM REPLAYGAIN_TRACK_PEAK 0.911987
INDEX 00 04:02:72
FILE “15 (Unlisted Track).flac” WAVE
INDEX 01 00:00:00


Leave a Reply

Your email address will not be published. Required fields are marked *

Enter the text from the image below
 

This site uses Akismet to reduce spam. Learn how your comment data is processed.