Five Finger Death Punch – F8




No Cover available


Artist: Five Finger Death Punch
Year: 2020
Genre: Metal
Notes: Discogs
Add. Notes:
Watch Songs on: YouTube
Cover incl.: Yes
Encoder: FLAC
Bitrate: ~1000 kBit/s (44.1 kHz/16 Bit/s)
Log & Cue incl.: Yes/Yes
Size: 446,9 MB
Password: “slam” (without ” “)


All Downloads/Hosters are compatible

Download 1
KatFile.com
Turbobit.net
Rapidgator.net
FileFactory.com
Download 2
KatFile.com
Turbobit.net
Rapidgator.net
FileFactory.com

Tracklist:

1 F8 1:15
2 Inside Out 3:47
3 Full Circle 3:24
4 Living The Dream 3:38
5 A Little Bit Off 3:13
6 Bottom Of The Top 3:31
7 To Be Alone 3:45
8 Mother May I (Tic Toc) 3:56
9 Darkness Settles In 4:44
10 This Is War 3:14
11 Leave It All Behind 3:33
12 Scar Tissue 2:55
13 Brighter Side Of Grey 4:32
14 Making Monsters 3:05
15 Death Punch Therapy 3:10
16 Inside Out (Radio Edit) 4:14

EAC-Log, CUE-Sheed & NFO:

Click to open spoiler
Exact Audio Copy V1.3 from 2. September 2016

EAC extraction logfile from 29. February 2020, 15:40

Five Finger Death Punch / F8

Used drive : TSSTcorpBDDVDW SE-506CB Adapter: 1 ID: 1

Read mode : Secure
Utilize accurate stream : Yes
Defeat audio cache : Yes
Make use of C2 pointers : No

Read offset correction : 6
Overread into Lead-In and Lead-Out : No
Fill up missing offset samples with silence : Yes
Delete leading and trailing silent blocks : No
Null samples used in CRC calculations : Yes
Used interface : Native Win32 interface for Win NT & 2000

Used output format : User Defined Encoder
Selected bitrate : 1024 kBit/s
Quality : High
Add ID3 tag : No
Command line compressor : C:\Program Files (x86)\Exact Audio Copy\Flac\flac.exe
Additional command line options : -V -8 -T “Date=%year%” -T “Genre=%genre%” %source%

TOC of the extracted CD

Track | Start | Length | Start sector | End sector
———————————————————
1 | 0:00.00 | 1:15.23 | 0 | 5647
2 | 1:15.23 | 3:47.26 | 5648 | 22698
3 | 5:02.49 | 3:24.28 | 22699 | 38026
4 | 8:27.02 | 3:37.50 | 38027 | 54351
5 | 12:04.52 | 3:12.63 | 54352 | 68814
6 | 15:17.40 | 3:31.23 | 68815 | 84662
7 | 18:48.63 | 3:45.11 | 84663 | 101548
8 | 22:33.74 | 3:56.27 | 101549 | 119275
9 | 26:30.26 | 4:43.70 | 119276 | 140570
10 | 31:14.21 | 3:13.57 | 140571 | 155102
11 | 34:28.03 | 3:32.54 | 155103 | 171056
12 | 38:00.57 | 2:55.37 | 171057 | 184218
13 | 40:56.19 | 4:31.53 | 184219 | 204596
14 | 45:27.72 | 3:05.10 | 204597 | 218481
15 | 48:33.07 | 3:10.32 | 218482 | 232763
16 | 51:43.39 | 4:14.08 | 232764 | 251821

Range status and errors

Selected range

Filename C:\EAC\ungern666\Five Finger Death Punch – F8.wav

Peak level 98.8 %
Extraction speed 3.8 X
Range quality 100.0 %
Test CRC 84A29DC9
Copy CRC 84A29DC9
Copy OK

No errors occurred

AccurateRip summary

Track 1 not present in database
Track 2 not present in database
Track 3 not present in database
Track 4 not present in database
Track 5 not present in database
Track 6 not present in database
Track 7 not present in database
Track 8 not present in database
Track 9 not present in database
Track 10 not present in database
Track 11 not present in database
Track 12 not present in database
Track 13 not present in database
Track 14 not present in database
Track 15 not present in database
Track 16 not present in database

None of the tracks are present in the AccurateRip database

End of status report

—- CUETools DB Plugin V2.1.6

[CTDB TOCID: VhRDoQZs4Oki6kZqweVwX_ATJ.Y-] found
Submit result: VhRDoQZs4Oki6kZqweVwX_ATJ.Y- has been confirmed
Track | CTDB Status
1 | (33/33) Accurately ripped
2 | (33/33) Accurately ripped
3 | (33/33) Accurately ripped
4 | (33/33) Accurately ripped
5 | (33/33) Accurately ripped
6 | (33/33) Accurately ripped
7 | (33/33) Accurately ripped
8 | (33/33) Accurately ripped
9 | (33/33) Accurately ripped
10 | (33/33) Accurately ripped
11 | (33/33) Accurately ripped
12 | (33/33) Accurately ripped
13 | (33/33) Accurately ripped
14 | (32/33) Accurately ripped
15 | (33/33) Accurately ripped
16 | (33/33) Accurately ripped

==== Log checksum 596B03046AFDF31D16C7191A3E67C723EBE75F4B2012DD0220D2F9099CB58982 ====

REM DATE 2020
REM DISCID D90D1D10
REM COMMENT “ExactAudioCopy v1.3”
PERFORMER “Five Finger Death Punch”
TITLE “F8”
FILE “Five Finger Death Punch – F8.flac” WAVE
TRACK 01 AUDIO
TITLE “F8”
PERFORMER “Five Finger Death Punch”
INDEX 01 00:00:00
TRACK 02 AUDIO
TITLE “Inside Out”
PERFORMER “Five Finger Death Punch”
INDEX 01 01:15:23
TRACK 03 AUDIO
TITLE “Full Circle”
PERFORMER “Five Finger Death Punch”
INDEX 00 05:01:49
INDEX 01 05:02:49
TRACK 04 AUDIO
TITLE “Living the Dream”
PERFORMER “Five Finger Death Punch”
INDEX 00 08:25:02
INDEX 01 08:27:02
TRACK 05 AUDIO
TITLE “A Little Bit Off”
PERFORMER “Five Finger Death Punch”
INDEX 00 12:01:52
INDEX 01 12:04:52
TRACK 06 AUDIO
TITLE “Bottom of the Top”
PERFORMER “Five Finger Death Punch”
INDEX 00 15:15:40
INDEX 01 15:17:40
TRACK 07 AUDIO
TITLE “To Be Alone”
PERFORMER “Five Finger Death Punch”
INDEX 00 18:47:63
INDEX 01 18:48:63
TRACK 08 AUDIO
TITLE “Mother May I (Tic Toc)”
PERFORMER “Five Finger Death Punch”
INDEX 01 22:33:74
TRACK 09 AUDIO
TITLE “Darkness Settles In”
PERFORMER “Five Finger Death Punch”
INDEX 00 26:28:26
INDEX 01 26:30:26
TRACK 10 AUDIO
TITLE “This Is War”
PERFORMER “Five Finger Death Punch”
INDEX 00 31:12:21
INDEX 01 31:14:21
TRACK 11 AUDIO
TITLE “Leave It All Behind”
PERFORMER “Five Finger Death Punch”
INDEX 00 34:26:03
INDEX 01 34:28:03
TRACK 12 AUDIO
TITLE “Scar Tissue”
PERFORMER “Five Finger Death Punch”
INDEX 00 37:58:57
INDEX 01 38:00:57
TRACK 13 AUDIO
TITLE “Brighter Side of Grey”
PERFORMER “Five Finger Death Punch”
INDEX 00 40:54:19
INDEX 01 40:56:19
TRACK 14 AUDIO
TITLE “Making Monsters (Bonus)”
PERFORMER “Five Finger Death Punch”
INDEX 00 45:25:72
INDEX 01 45:27:72
TRACK 15 AUDIO
TITLE “Death Punch Therapy (Bonus)”
PERFORMER “Five Finger Death Punch”
INDEX 00 48:31:07
INDEX 01 48:33:07
TRACK 16 AUDIO
TITLE “Inside Out (Radio Edit) (Bonus)”
PERFORMER “Five Finger Death Punch”
INDEX 00 51:41:39
INDEX 01 51:43:39


Leave a Reply

Your email address will not be published. Required fields are marked *

Enter the text from the image below
 

This site uses Akismet to reduce spam. Learn how your comment data is processed.