Five Finger Death Punch – And Justice For None (Limited Deluxe Edition)




Artist: Five Finger Death Punch
Year: 2018
Genre: Rock
Notes: Discogs
Add. Notes: Limited Deluxe Edition
Cover incl.: Yes
Encoder: FLAC
Bitrate: ~1000 kBit/s (44.1 kHz/16 Bit/s)
Log & Cue incl.: Yes
Size: 450,18 MB
Password: “slam” (without ” “)


All Downloads/Hosters are compatible

Download 1
Turbobit.net
NitroFlare.com
KatFile.com
Rapidgator.net
Download 2
Turbobit.net
NitroFlare.com
KatFile.com
Rapidgator.net

Tracklist:

1. Trouble 	
2. Fake 	
3. Top Of The World 	
4. Sham Pain 	
5. Blue On Black 	
6. Fire In The Hole 	
7. I Refuse 	
8. It Doesn't Matter 	
9. When The Seasons Change 	
10. Stuck In My Ways 	
11. Rock Bottom 	
12. Gone Away 	
13. Bloody 	
14. Will The Sun Ever Rise 	
Bonus Tracks
15. Bad Seed 	
16. Save Your Breath

EAC-Log, CUE-Sheed & NFO:

Click to open spoiler
Exact Audio Copy V1.1 from 23. June 2015

EAC extraction logfile from 19. May 2018, 14:01

Five Finger Death Punch / And Justice For None

Used drive : HL-DT-STDVD+-RW GHB0N Adapter: 1 ID: 1

Read mode : Secure
Utilize accurate stream : Yes
Defeat audio cache : Yes
Make use of C2 pointers : No

Read offset correction : 6
Overread into Lead-In and Lead-Out : No
Fill up missing offset samples with silence : Yes
Delete leading and trailing silent blocks : No
Null samples used in CRC calculations : Yes
Used interface : Native Win32 interface for Win NT & 2000
Gap handling : Appended to previous track

Used output format : User Defined Encoder
Selected bitrate : 768 kBit/s
Quality : High
Add ID3 tag : No
Command line compressor : C:\Program Files (x86)\Exact Audio Copy\FLAC\FLAC.EXE
Additional command line options : -8 -V -T “ARTIST=%artist%” -T “TITLE=%title%” -T “ALBUM=%albumtitle%” -T “DATE=%year%” -T “TRACKNUMBER=%tracknr%” -T “TOTALTRACKS=%numtracks%” -T “GENRE=%genre%” -T “ALBUMARTIST=%albumartist%” -T “ALBUM ARTIST=%albumartist%” -T “COMMENT=EAC Secure Mode, Test & Copy, AccurateRip, FLAC -8” %source%

TOC of the extracted CD

Track | Start | Length | Start sector | End sector
———————————————————
1 | 0:00.00 | 3:12.24 | 0 | 14423
2 | 3:12.24 | 3:31.02 | 14424 | 30250
3 | 6:43.26 | 2:42.13 | 30251 | 42413
4 | 9:25.39 | 3:29.62 | 42414 | 58150
5 | 12:55.26 | 4:34.56 | 58151 | 78756
6 | 17:30.07 | 2:57.50 | 78757 | 92081
7 | 20:27.57 | 3:38.69 | 92082 | 108500
8 | 24:06.51 | 3:46.07 | 108501 | 125457
9 | 27:52.58 | 3:47.33 | 125458 | 142515
10 | 31:40.16 | 3:56.66 | 142516 | 160281
11 | 35:37.07 | 2:34.09 | 160282 | 171840
12 | 38:11.16 | 4:35.25 | 171841 | 192490
13 | 42:46.41 | 3:49.40 | 192491 | 209705
14 | 46:36.06 | 3:56.42 | 209706 | 227447
15 | 50:32.48 | 3:59.19 | 227448 | 245391
16 | 54:31.67 | 3:27.42 | 245392 | 260958

Track 1

Filename F:\Torrents\Downloads\Five Finger Death Punch – And Justice For None (2018) [FLAC] {PPPK-701021}\01 – Trouble.wav

Pre-gap length 0:00:02.00

Peak level 98.8 %
Extraction speed 0.9 X
Track quality 100.0 %
Test CRC 77589EA3
Copy CRC 77589EA3
Track not present in AccurateRip database
Copy OK

Track 2

Filename F:\Torrents\Downloads\Five Finger Death Punch – And Justice For None (2018) [FLAC] {PPPK-701021}\02 – Fake.wav

Peak level 98.8 %
Extraction speed 1.1 X
Track quality 100.0 %
Test CRC 15E67B81
Copy CRC 15E67B81
Track not present in AccurateRip database
Copy OK

Track 3

Filename F:\Torrents\Downloads\Five Finger Death Punch – And Justice For None (2018) [FLAC] {PPPK-701021}\03 – Top Of The World.wav

Peak level 98.8 %
Extraction speed 1.1 X
Track quality 100.0 %
Test CRC 5FA670A1
Copy CRC 5FA670A1
Track not present in AccurateRip database
Copy OK

Track 4

Filename F:\Torrents\Downloads\Five Finger Death Punch – And Justice For None (2018) [FLAC] {PPPK-701021}\04 – Sham-Pain.wav

Peak level 98.8 %
Extraction speed 1.1 X
Track quality 99.9 %
Test CRC 8D2A1312
Copy CRC 8D2A1312
Track not present in AccurateRip database
Copy OK

Track 5

Filename F:\Torrents\Downloads\Five Finger Death Punch – And Justice For None (2018) [FLAC] {PPPK-701021}\05 – Blue On Black.wav

Peak level 98.8 %
Extraction speed 1.4 X
Track quality 100.0 %
Test CRC D8F8F9BD
Copy CRC D8F8F9BD
Track not present in AccurateRip database
Copy OK

Track 6

Filename F:\Torrents\Downloads\Five Finger Death Punch – And Justice For None (2018) [FLAC] {PPPK-701021}\06 – Fire In The Hole.wav

Peak level 98.8 %
Extraction speed 1.4 X
Track quality 100.0 %
Test CRC D55EC30A
Copy CRC D55EC30A
Track not present in AccurateRip database
Copy OK

Track 7

Filename F:\Torrents\Downloads\Five Finger Death Punch – And Justice For None (2018) [FLAC] {PPPK-701021}\07 – I Refuse.wav

Pre-gap length 0:00:01.00

Peak level 98.8 %
Extraction speed 1.5 X
Track quality 100.0 %
Test CRC ED67D4BB
Copy CRC ED67D4BB
Track not present in AccurateRip database
Copy OK

Track 8

Filename F:\Torrents\Downloads\Five Finger Death Punch – And Justice For None (2018) [FLAC] {PPPK-701021}\08 – It Doesn’t Matter.wav

Peak level 98.8 %
Extraction speed 1.4 X
Track quality 99.9 %
Test CRC 31A1631E
Copy CRC 31A1631E
Track not present in AccurateRip database
Copy OK

Track 9

Filename F:\Torrents\Downloads\Five Finger Death Punch – And Justice For None (2018) [FLAC] {PPPK-701021}\09 – When The Seasons Change.wav

Peak level 98.8 %
Extraction speed 1.6 X
Track quality 100.0 %
Test CRC EAE85085
Copy CRC EAE85085
Track not present in AccurateRip database
Copy OK

Track 10

Filename F:\Torrents\Downloads\Five Finger Death Punch – And Justice For None (2018) [FLAC] {PPPK-701021}\10 – Stuck In My Ways.wav

Peak level 98.8 %
Extraction speed 1.7 X
Track quality 100.0 %
Test CRC 590C58B4
Copy CRC 590C58B4
Track not present in AccurateRip database
Copy OK

Track 11

Filename F:\Torrents\Downloads\Five Finger Death Punch – And Justice For None (2018) [FLAC] {PPPK-701021}\11 – Rock Bottom.wav

Peak level 98.8 %
Extraction speed 1.6 X
Track quality 100.0 %
Test CRC 19515A8C
Copy CRC 19515A8C
Track not present in AccurateRip database
Copy OK

Track 12

Filename F:\Torrents\Downloads\Five Finger Death Punch – And Justice For None (2018) [FLAC] {PPPK-701021}\12 – Gone Away.wav

Pre-gap length 0:00:02.00

Peak level 98.8 %
Extraction speed 1.9 X
Track quality 100.0 %
Test CRC 8D8701C4
Copy CRC 8D8701C4
Track not present in AccurateRip database
Copy OK

Track 13

Filename F:\Torrents\Downloads\Five Finger Death Punch – And Justice For None (2018) [FLAC] {PPPK-701021}\13 – Bloody.wav

Peak level 98.8 %
Extraction speed 1.9 X
Track quality 100.0 %
Test CRC C823FAF1
Copy CRC C823FAF1
Track not present in AccurateRip database
Copy OK

Track 14

Filename F:\Torrents\Downloads\Five Finger Death Punch – And Justice For None (2018) [FLAC] {PPPK-701021}\14 – Will The Sun Ever Rise.wav

Peak level 98.8 %
Extraction speed 2.0 X
Track quality 100.0 %
Test CRC 23E42700
Copy CRC 23E42700
Track not present in AccurateRip database
Copy OK

Track 15

Filename F:\Torrents\Downloads\Five Finger Death Punch – And Justice For None (2018) [FLAC] {PPPK-701021}\15 – Bad Seed.wav

Peak level 98.8 %
Extraction speed 2.0 X
Track quality 100.0 %
Test CRC 68DB6718
Copy CRC 68DB6718
Track not present in AccurateRip database
Copy OK

Track 16

Filename F:\Torrents\Downloads\Five Finger Death Punch – And Justice For None (2018) [FLAC] {PPPK-701021}\16 – Save Your Breath.wav

Peak level 98.8 %
Extraction speed 2.0 X
Track quality 100.0 %
Test CRC FE9881F5
Copy CRC FE9881F5
Track not present in AccurateRip database
Copy OK

None of the tracks are present in the AccurateRip database

No errors occurred

End of status report

—- CUETools DB Plugin V2.1.6

[CTDB TOCID: rlFBQoL7gZidDvQ4QOcjqppi27A-] found
Submit result: rlFBQoL7gZidDvQ4QOcjqppi27A- has been confirmed
Track | CTDB Status
1 | (61/61) Accurately ripped
2 | (61/61) Accurately ripped
3 | (61/61) Accurately ripped
4 | (61/61) Accurately ripped
5 | (61/61) Accurately ripped
6 | (61/61) Accurately ripped
7 | (61/61) Accurately ripped
8 | (61/61) Accurately ripped
9 | (61/61) Accurately ripped
10 | (61/61) Accurately ripped
11 | (61/61) Accurately ripped
12 | (61/61) Accurately ripped
13 | (61/61) Accurately ripped
14 | (61/61) Accurately ripped
15 | (61/61) Accurately ripped
16 | (61/61) Accurately ripped

==== Log checksum 3CBCE9A6461CCEFD550477D21739528692032AFED733E207B56CBA61609CA8A5 ====

REM GENRE Rock
REM DATE 2018
REM DISCID EC0D9710
REM COMMENT “ExactAudioCopy v1.1”
PERFORMER “Five Finger Death Punch”
TITLE “And Justice For None”
FILE “01 – Trouble.wav” WAVE
TRACK 01 AUDIO
TITLE “Trouble”
PERFORMER “Five Finger Death Punch”
INDEX 01 00:00:00
FILE “02 – Fake.wav” WAVE
TRACK 02 AUDIO
TITLE “Fake”
PERFORMER “Five Finger Death Punch”
INDEX 01 00:00:00
FILE “03 – Top Of The World.wav” WAVE
TRACK 03 AUDIO
TITLE “Top Of The World”
PERFORMER “Five Finger Death Punch”
INDEX 01 00:00:00
FILE “04 – Sham-Pain.wav” WAVE
TRACK 04 AUDIO
TITLE “Sham-Pain”
PERFORMER “Five Finger Death Punch”
INDEX 01 00:00:00
FILE “05 – Blue On Black.wav” WAVE
TRACK 05 AUDIO
TITLE “Blue On Black”
PERFORMER “Five Finger Death Punch”
INDEX 01 00:00:00
FILE “06 – Fire In The Hole.wav” WAVE
TRACK 06 AUDIO
TITLE “Fire In The Hole”
PERFORMER “Five Finger Death Punch”
INDEX 01 00:00:00
TRACK 07 AUDIO
TITLE “I Refuse”
PERFORMER “Five Finger Death Punch”
INDEX 00 02:56:50
FILE “07 – I Refuse.wav” WAVE
INDEX 01 00:00:00
FILE “08 – It Doesn’t Matter.wav” WAVE
TRACK 08 AUDIO
TITLE “It Doesn’t Matter”
PERFORMER “Five Finger Death Punch”
INDEX 01 00:00:00
FILE “09 – When The Seasons Change.wav” WAVE
TRACK 09 AUDIO
TITLE “When The Seasons Change”
PERFORMER “Five Finger Death Punch”
INDEX 01 00:00:00
FILE “10 – Stuck In My Ways.wav” WAVE
TRACK 10 AUDIO
TITLE “Stuck In My Ways”
PERFORMER “Five Finger Death Punch”
INDEX 01 00:00:00
FILE “11 – Rock Bottom.wav” WAVE
TRACK 11 AUDIO
TITLE “Rock Bottom”
PERFORMER “Five Finger Death Punch”
INDEX 01 00:00:00
TRACK 12 AUDIO
TITLE “Gone Away”
PERFORMER “Five Finger Death Punch”
INDEX 00 02:32:09
FILE “12 – Gone Away.wav” WAVE
INDEX 01 00:00:00
FILE “13 – Bloody.wav” WAVE
TRACK 13 AUDIO
TITLE “Bloody”
PERFORMER “Five Finger Death Punch”
INDEX 01 00:00:00
FILE “14 – Will The Sun Ever Rise.wav” WAVE
TRACK 14 AUDIO
TITLE “Will The Sun Ever Rise”
PERFORMER “Five Finger Death Punch”
INDEX 01 00:00:00
FILE “15 – Bad Seed.wav” WAVE
TRACK 15 AUDIO
TITLE “Bad Seed”
PERFORMER “Five Finger Death Punch”
INDEX 01 00:00:00
FILE “16 – Save Your Breath.wav” WAVE
TRACK 16 AUDIO
TITLE “Save Your Breath”
PERFORMER “Five Finger Death Punch”
INDEX 01 00:00:00


Leave a Reply

Your email address will not be published. Required fields are marked *

This site uses Akismet to reduce spam. Learn how your comment data is processed.