Five Finger Death Punch – American Capitalist (Deluxe Edition)




[Total: 0    Average: 0/5]

Artist: Five Finger Death Punch
Year: 2011
Genre: Metal
Notes: Discogs
Add. Notes: Deluxe Edition
Cover incl.: Yes
Encoder: FLAC
Bitrate: ~1100 kBit/s (44.1 kHz/16 Bit/s)
Log & Cue incl.: Yes
Size: 425,27 MB
Password: “slam” (without ” “)


All Downloads/Hosters are compatible

Download 1
Share-online.biz
KatFile.com
Rapidgator.net
Download 2
Share-online.biz
KatFile.com
Rapidgator.net

Tracklist:

CD 1
1-1 - American Capitalist - 3:29
1-2 - Under And Over It - 3:38
1-3 - The Pride - 3:19
1-4 - Coming Down - 4:08
1-5 - Menace - 3:32
1-6 - Generation Dead - 3:43
1-7 - Back For More - 3:24
1-8 - Remember Everything - 4:39
1-9 - Wicked Ways - 3:08
1-10 - If I Fall - 3:57
1-11 - 100 Ways To Hate - 3:21
CD 2
2-1 - Under And Over It Remix - 3:56
2-2 - The Pride Remix - 3:24
2-3 - Remember Everything Remix - 4:55
2-4 - 100 Ways To Hate Remix - 3:09

EAC-Log, CUE-Sheed & NFO:

Click to open spoiler
Exact Audio Copy V1.0 beta 2 from 29. April 2011

EAC extraction logfile from 11. October 2011, 13:46

Five Finger Death Punch / American Capitalist [Deluxe Edition] (Disc 1)

Used drive : PLEXTOR DVDR PX-850SA Adapter: 3 ID: 1

Read mode : Secure
Utilize accurate stream : Yes
Defeat audio cache : Yes
Make use of C2 pointers : No

Read offset correction : 6
Overread into Lead-In and Lead-Out : No
Fill up missing offset samples with silence : Yes
Delete leading and trailing silent blocks : No
Null samples used in CRC calculations : Yes
Used interface : Native Win32 interface for Win NT & 2000
Gap handling : Appended to previous track

Used output format : User Defined Encoder
Selected bitrate : 128 kBit/s
Quality : High
Add ID3 tag : No
Command line compressor : C:\Program Files (x86)\FLAC\flac.exe
Additional command line options : -T “artist=%artist%” -T “title=%title%” -T “album=%albumtitle%” -T “date=%year%” -T “tracknumber=%tracknr%” -T “genre=%genre%” -5 %source%

TOC of the extracted CD

Track | Start | Length | Start sector | End sector
———————————————————
1 | 0:00.00 | 3:28.33 | 0 | 15632
2 | 3:28.33 | 3:38.10 | 15633 | 31992
3 | 7:06.43 | 3:23.61 | 31993 | 47278
4 | 10:30.29 | 4:01.17 | 47279 | 65370
5 | 14:31.46 | 3:31.60 | 65371 | 81255
6 | 18:03.31 | 3:43.13 | 81256 | 97993
7 | 21:46.44 | 3:22.42 | 97994 | 113185
8 | 25:09.11 | 4:38.61 | 113186 | 134096
9 | 29:47.72 | 3:07.38 | 134097 | 148159
10 | 32:55.35 | 3:56.39 | 148160 | 165898
11 | 36:51.74 | 3:20.73 | 165899 | 180971

Track 1

Filename C:\Rips\American Capitalist [Deluxe Edition] (Disc 1)\01 – American Capitalist.wav

Pre-gap length 0:00:02.00

Peak level 98.8 %
Extraction speed 4.3 X
Track quality 100.0 %
Test CRC 824669A8
Copy CRC 824669A8
Track not present in AccurateRip database
Copy OK

Track 2

Filename C:\Rips\American Capitalist [Deluxe Edition] (Disc 1)\02 – Under And Over It.wav

Peak level 98.8 %
Extraction speed 3.9 X
Track quality 99.9 %
Test CRC BFE3F952
Copy CRC BFE3F952
Track not present in AccurateRip database
Copy OK

Track 3

Filename C:\Rips\American Capitalist [Deluxe Edition] (Disc 1)\03 – The Pride.wav

Peak level 98.8 %
Extraction speed 4.2 X
Track quality 99.9 %
Test CRC AB077A03
Copy CRC AB077A03
Track not present in AccurateRip database
Copy OK

Track 4

Filename C:\Rips\American Capitalist [Deluxe Edition] (Disc 1)\04 – Coming Down.wav

Peak level 98.8 %
Extraction speed 5.6 X
Track quality 100.0 %
Test CRC A93F4E7D
Copy CRC A93F4E7D
Track not present in AccurateRip database
Copy OK

Track 5

Filename C:\Rips\American Capitalist [Deluxe Edition] (Disc 1)\05 – Menace.wav

Peak level 98.8 %
Extraction speed 4.7 X
Track quality 99.9 %
Test CRC DFA2E6F8
Copy CRC DFA2E6F8
Track not present in AccurateRip database
Copy OK

Track 6

Filename C:\Rips\American Capitalist [Deluxe Edition] (Disc 1)\06 – Generation Dead.wav

Peak level 98.8 %
Extraction speed 6.3 X
Track quality 100.0 %
Test CRC CB3E7EC6
Copy CRC CB3E7EC6
Track not present in AccurateRip database
Copy OK

Track 7

Filename C:\Rips\American Capitalist [Deluxe Edition] (Disc 1)\07 – Back For More.wav

Peak level 98.8 %
Extraction speed 6.5 X
Track quality 100.0 %
Test CRC FA9FC9F6
Copy CRC FA9FC9F6
Track not present in AccurateRip database
Copy OK

Track 8

Filename C:\Rips\American Capitalist [Deluxe Edition] (Disc 1)\08 – Remember Everything.wav

Peak level 98.8 %
Extraction speed 7.1 X
Track quality 100.0 %
Test CRC 8BB650AA
Copy CRC 8BB650AA
Track not present in AccurateRip database
Copy OK

Track 9

Filename C:\Rips\American Capitalist [Deluxe Edition] (Disc 1)\09 – Wicked Ways.wav

Peak level 98.8 %
Extraction speed 6.9 X
Track quality 100.0 %
Test CRC D29B2334
Copy CRC D29B2334
Track not present in AccurateRip database
Copy OK

Track 10

Filename C:\Rips\American Capitalist [Deluxe Edition] (Disc 1)\10 – If I Fall.wav

Peak level 98.8 %
Extraction speed 7.4 X
Track quality 100.0 %
Test CRC A3E80DF4
Copy CRC A3E80DF4
Track not present in AccurateRip database
Copy OK

Track 11

Filename C:\Rips\American Capitalist [Deluxe Edition] (Disc 1)\11 – 100 Ways To Hate.wav

Peak level 98.8 %
Extraction speed 7.4 X
Track quality 100.0 %
Test CRC EC12CB58
Copy CRC EC12CB58
Track not present in AccurateRip database
Copy OK

None of the tracks are present in the AccurateRip database

No errors occurred

End of status report

Exact Audio Copy V1.0 beta 2 from 29. April 2011

EAC extraction logfile from 11. October 2011, 13:55

Five Finger Death Punch / American Capitalist [Deluxe Edition] (Disc 2)

Used drive : PLEXTOR DVDR PX-850SA Adapter: 3 ID: 1

Read mode : Secure
Utilize accurate stream : Yes
Defeat audio cache : Yes
Make use of C2 pointers : No

Read offset correction : 6
Overread into Lead-In and Lead-Out : No
Fill up missing offset samples with silence : Yes
Delete leading and trailing silent blocks : No
Null samples used in CRC calculations : Yes
Used interface : Native Win32 interface for Win NT & 2000
Gap handling : Appended to previous track

Used output format : User Defined Encoder
Selected bitrate : 128 kBit/s
Quality : High
Add ID3 tag : No
Command line compressor : C:\Program Files (x86)\FLAC\flac.exe
Additional command line options : -T “artist=%artist%” -T “title=%title%” -T “album=%albumtitle%” -T “date=%year%” -T “tracknumber=%tracknr%” -T “genre=%genre%” -5 %source%

TOC of the extracted CD

Track | Start | Length | Start sector | End sector
———————————————————
1 | 0:00.00 | 3:56.65 | 0 | 17764
2 | 3:56.65 | 3:23.73 | 17765 | 33062
3 | 7:20.63 | 4:50.42 | 33063 | 54854
4 | 12:11.30 | 3:11.02 | 54855 | 69181

Track 1

Filename C:\Rips\American Capitalist [Deluxe Edition] (Disc 2)\01 – Under And Over It (Remix).wav

Pre-gap length 0:00:02.00

Peak level 98.8 %
Extraction speed 4.6 X
Track quality 100.0 %
Test CRC CFB48987
Copy CRC CFB48987
Track not present in AccurateRip database
Copy OK

Track 2

Filename C:\Rips\American Capitalist [Deluxe Edition] (Disc 2)\02 – The Pride (Remix).wav

Peak level 98.8 %
Extraction speed 4.9 X
Track quality 100.0 %
Test CRC CFC25525
Copy CRC CFC25525
Track not present in AccurateRip database
Copy OK

Track 3

Filename C:\Rips\American Capitalist [Deluxe Edition] (Disc 2)\03 – Remember Everything (Remix).wav

Peak level 98.8 %
Extraction speed 5.1 X
Track quality 100.0 %
Test CRC BEF1E1AD
Copy CRC BEF1E1AD
Track not present in AccurateRip database
Copy OK

Track 4

Filename C:\Rips\American Capitalist [Deluxe Edition] (Disc 2)\04 – 100 Ways To Hate (Remix).wav

Peak level 98.8 %
Extraction speed 5.4 X
Track quality 100.0 %
Test CRC B93E4B1D
Copy CRC B93E4B1D
Track not present in AccurateRip database
Copy OK

None of the tracks are present in the AccurateRip database

No errors occurred

End of status report

REM GENRE Metal
REM DATE 2011
PERFORMER “Five Finger Death Punch”
TITLE “American Capitalist [Deluxe Edition] (Disc 1)”
FILE “01 – American Capitalist.flac” WAVE
TRACK 01 AUDIO
TITLE “American Capitalist”
PERFORMER “Five Finger Death Punch”
INDEX 01 00:00:00
FILE “02 – Under And Over It.flac” WAVE
TRACK 02 AUDIO
TITLE “Under And Over It”
PERFORMER “Five Finger Death Punch”
INDEX 01 00:00:00
FILE “03 – The Pride.flac” WAVE
TRACK 03 AUDIO
TITLE “The Pride”
PERFORMER “Five Finger Death Punch”
INDEX 01 00:00:00
FILE “04 – Coming Down.flac” WAVE
TRACK 04 AUDIO
TITLE “Coming Down”
PERFORMER “Five Finger Death Punch”
INDEX 01 00:00:00
FILE “05 – Menace.flac” WAVE
TRACK 05 AUDIO
TITLE “Menace”
PERFORMER “Five Finger Death Punch”
INDEX 01 00:00:00
FILE “06 – Generation Dead.flac” WAVE
TRACK 06 AUDIO
TITLE “Generation Dead”
PERFORMER “Five Finger Death Punch”
INDEX 01 00:00:00
FILE “07 – Back For More.flac” WAVE
TRACK 07 AUDIO
TITLE “Back For More”
PERFORMER “Five Finger Death Punch”
INDEX 01 00:00:00
FILE “08 – Remember Everything.flac” WAVE
TRACK 08 AUDIO
TITLE “Remember Everything”
PERFORMER “Five Finger Death Punch”
INDEX 01 00:00:00
FILE “09 – Wicked Ways.flac” WAVE
TRACK 09 AUDIO
TITLE “Wicked Ways”
PERFORMER “Five Finger Death Punch”
INDEX 01 00:00:00
FILE “10 – If I Fall.flac” WAVE
TRACK 10 AUDIO
TITLE “If I Fall”
PERFORMER “Five Finger Death Punch”
INDEX 01 00:00:00
FILE “11 – 100 Ways To Hate.flac” WAVE
TRACK 11 AUDIO
TITLE “100 Ways To Hate”
PERFORMER “Five Finger Death Punch”
INDEX 01 00:00:00

REM GENRE Metal
REM DATE 2011
PERFORMER “Five Finger Death Punch”
TITLE “American Capitalist [Deluxe Edition] (Disc 2)”
FILE “01 – Under And Over It (Remix).flac” WAVE
TRACK 01 AUDIO
TITLE “Under And Over It (Remix)”
PERFORMER “Five Finger Death Punch”
INDEX 01 00:00:00
FILE “02 – The Pride (Remix).flac” WAVE
TRACK 02 AUDIO
TITLE “The Pride (Remix)”
PERFORMER “Five Finger Death Punch”
INDEX 01 00:00:00
FILE “03 – Remember Everything (Remix).flac” WAVE
TRACK 03 AUDIO
TITLE “Remember Everything (Remix)”
PERFORMER “Five Finger Death Punch”
INDEX 01 00:00:00
FILE “04 – 100 Ways To Hate (Remix).flac” WAVE
TRACK 04 AUDIO
TITLE “100 Ways To Hate (Remix)”
PERFORMER “Five Finger Death Punch”
INDEX 01 00:00:00


Spread the Download

Leave a Reply

Your email address will not be published. Required fields are marked *

Enter the text from the image below
 

This site uses Akismet to reduce spam. Learn how your comment data is processed.