Five Finger Death Punch – A Decade Of Destruction




[Total: 0    Average: 0/5]

Artist: Five Finger Death Punch
Year: 2017
Genre: Metal
Notes: Discogs
Add. Notes:
Cover incl.: Yes
Encoder: FLAC
Bitrate: ~1000 kBit/s (44.1 kHz/16 Bit/s)
Log & Cue incl.: Yes
Size: 466,87 MB
Password: “slam” (without ” “)


All Downloads/Hosters are compatible

Download 1
Share-online.biz
KatFile.com
Rapidgator.net
Download 2
Share-online.biz
KatFile.com
Rapidgator.net

Tracklist:

1 - Trouble - 3:12
2 - Gone Away - 4:35
3 - Lift Me Up - 4:06
4 - Wash It All Away - 3:45
5 - Bad Company - 4:22
6 - Under And Over It - 3:38
7 - Wrong Side Of Heaven - 4:31
8 - House Of The Rising Sun - 4:07
9 - I Apologize - 4:03
10 - The Bleeding - 4:28
11 - Jekyll And Hyde - 3:26
12 - Remember Everything - 4:38
13 - Coming Down - 4:01
14 - My Nemesis - 3:35
15 - Battle Born - 3:43
16 - Far from Home - 3:32

EAC-Log, CUE-Sheed & NFO:

Click to open spoiler
Exact Audio Copy V1.3 from 2. September 2016

EAC extraction logfile from 19. December 2017, 22:07

Five Finger Death Punch / A Decade Of Destruction

Used drive : ATAPI BD E DH12E3SH Adapter: 1 ID: 0

Read mode : Secure
Utilize accurate stream : Yes
Defeat audio cache : Yes
Make use of C2 pointers : No

Read offset correction : 702
Overread into Lead-In and Lead-Out : No
Fill up missing offset samples with silence : Yes
Delete leading and trailing silent blocks : No
Null samples used in CRC calculations : Yes
Used interface : Native Win32 interface for Win NT & 2000
Gap handling : Appended to previous track

Used output format : User Defined Encoder
Selected bitrate : 1024 kBit/s
Quality : High
Add ID3 tag : No
Command line compressor : C:\Program Files (x86)\Exact Audio Copy\Flac\flac.exe
Additional command line options : -8 -e -p -V -T “ARTIST=%artist%” -T “TITLE=%title%” -T “ALBUM=%albumtitle%” -T “DATE=%year%” -T “TRACKNUMBER=%tracknr1%” -T “GENRE=%genre%” -T “PERFORMER=%albuminterpret%” -T “COMPOSER=%composer%” %haslyrics%–tag-from-file=LYRICS=”%lyricsfile%”%haslyrics% -T “ALBUMARTIST=%albumartist%” -T “DISCNUMBER=%cdnumber%” -T “TOTALDISCS=%totalcds%” -T “TOTALTRACKS=%numtracks%” -T “COMMENT=%comment%” %source% -o %dest%

TOC of the extracted CD

Track | Start | Length | Start sector | End sector
———————————————————
1 | 0:00.00 | 3:12.39 | 0 | 14438
2 | 3:12.39 | 4:35.12 | 14439 | 35075
3 | 7:47.51 | 4:07.26 | 35076 | 53626
4 | 11:55.02 | 3:45.51 | 53627 | 70552
5 | 15:40.53 | 4:22.32 | 70553 | 90234
6 | 20:03.10 | 3:38.08 | 90235 | 106592
7 | 23:41.18 | 4:31.55 | 106593 | 126972
8 | 28:12.73 | 4:07.28 | 126973 | 145525
9 | 32:20.26 | 4:02.70 | 145526 | 163745
10 | 36:23.21 | 4:29.68 | 163746 | 183988
11 | 40:53.14 | 3:26.66 | 183989 | 199504
12 | 44:20.05 | 4:40.06 | 199505 | 220510
13 | 49:00.11 | 4:02.44 | 220511 | 238704
14 | 53:02.55 | 3:37.31 | 238705 | 255010
15 | 56:40.11 | 3:44.24 | 255011 | 271834
16 | 60:24.35 | 3:32.39 | 271835 | 287773

Track 1

Filename R:\Music\Music Working\A Decade Of Destruction\01 – Trouble.wav

Pre-gap length 0:00:02.00

Peak level 100.0 %
Extraction speed 1.5 X
Track quality 100.0 %
Test CRC ECCCAD4D
Copy CRC ECCCAD4D
Track not present in AccurateRip database
Copy OK

Track 2

Filename R:\Music\Music Working\A Decade Of Destruction\02 – Gone Away.wav

Peak level 100.0 %
Extraction speed 1.9 X
Track quality 100.0 %
Test CRC 9368F330
Copy CRC 9368F330
Track not present in AccurateRip database
Copy OK

Track 3

Filename R:\Music\Music Working\A Decade Of Destruction\03 – Lift Me Up.wav

Peak level 97.4 %
Extraction speed 1.7 X
Track quality 99.9 %
Test CRC 65156185
Copy CRC 65156185
Track not present in AccurateRip database
Copy OK

Track 4

Filename R:\Music\Music Working\A Decade Of Destruction\04 – Wash It All Away.wav

Peak level 100.0 %
Extraction speed 2.3 X
Track quality 100.0 %
Test CRC 482A11F9
Copy CRC 482A11F9
Track not present in AccurateRip database
Copy OK

Track 5

Filename R:\Music\Music Working\A Decade Of Destruction\05 – Bad Company.wav

Peak level 99.9 %
Extraction speed 2.4 X
Track quality 100.0 %
Test CRC 14361227
Copy CRC 14361227
Track not present in AccurateRip database
Copy OK

Track 6

Filename R:\Music\Music Working\A Decade Of Destruction\06 – Under And Over It.wav

Peak level 98.8 %
Extraction speed 1.9 X
Track quality 99.9 %
Test CRC EEAAD9CF
Copy CRC EEAAD9CF
Track not present in AccurateRip database
Copy OK

Track 7

Filename R:\Music\Music Working\A Decade Of Destruction\07 – Wrong Side Of Heaven.wav

Peak level 98.5 %
Extraction speed 2.7 X
Track quality 100.0 %
Test CRC 0E57ACE5
Copy CRC 0E57ACE5
Track not present in AccurateRip database
Copy OK

Track 8

Filename R:\Music\Music Working\A Decade Of Destruction\08 – House Of The Rising Sun.wav

Peak level 100.0 %
Extraction speed 2.8 X
Track quality 100.0 %
Test CRC FCE90987
Copy CRC FCE90987
Track not present in AccurateRip database
Copy OK

Track 9

Filename R:\Music\Music Working\A Decade Of Destruction\09 – I Apologize.wav

Peak level 100.0 %
Extraction speed 2.9 X
Track quality 100.0 %
Test CRC 30EEA21C
Copy CRC 30EEA21C
Track not present in AccurateRip database
Copy OK

Track 10

Filename R:\Music\Music Working\A Decade Of Destruction\10 – The Bleeding.wav

Peak level 98.8 %
Extraction speed 2.5 X
Track quality 99.9 %
Test CRC 2DB9C584
Copy CRC 2DB9C584
Track not present in AccurateRip database
Copy OK

Track 11

Filename R:\Music\Music Working\A Decade Of Destruction\11 – Jekyll And Hyde.wav

Peak level 100.0 %
Extraction speed 2.9 X
Track quality 100.0 %
Test CRC 35BA9F34
Copy CRC 35BA9F34
Track not present in AccurateRip database
Copy OK

Track 12

Filename R:\Music\Music Working\A Decade Of Destruction\12 – Remember Everything.wav

Peak level 98.8 %
Extraction speed 3.2 X
Track quality 100.0 %
Test CRC 030F6477
Copy CRC 030F6477
Track not present in AccurateRip database
Copy OK

Track 13

Filename R:\Music\Music Working\A Decade Of Destruction\13 – Coming Down.wav

Peak level 98.8 %
Extraction speed 3.4 X
Track quality 100.0 %
Test CRC 64F39490
Copy CRC 64F39490
Track not present in AccurateRip database
Copy OK

Track 14

Filename R:\Music\Music Working\A Decade Of Destruction\14 – My Nemesis.wav

Peak level 100.0 %
Extraction speed 3.5 X
Track quality 100.0 %
Test CRC D6F628CF
Copy CRC D6F628CF
Track not present in AccurateRip database
Copy OK

Track 15

Filename R:\Music\Music Working\A Decade Of Destruction\15 – Battle Born.wav

Peak level 100.0 %
Extraction speed 3.6 X
Track quality 100.0 %
Test CRC AED86CCB
Copy CRC AED86CCB
Track not present in AccurateRip database
Copy OK

Track 16

Filename R:\Music\Music Working\A Decade Of Destruction\16 – Far From Home.wav

Peak level 99.9 %
Extraction speed 2.7 X
Track quality 99.9 %
Test CRC 14B3D221
Copy CRC 14B3D221
Track not present in AccurateRip database
Copy OK

None of the tracks are present in the AccurateRip database

No errors occurred

End of status report

—- CUETools DB Plugin V2.1.6

[CTDB TOCID: tFcyA9km.XT2FLtxLIYzSnc1lFc-] found
Submit result: tFcyA9km.XT2FLtxLIYzSnc1lFc- has been confirmed
Track | CTDB Status
1 | (35/35) Accurately ripped
2 | (35/35) Accurately ripped
3 | (35/35) Accurately ripped
4 | (35/35) Accurately ripped
5 | (35/35) Accurately ripped
6 | (35/35) Accurately ripped
7 | (35/35) Accurately ripped
8 | (35/35) Accurately ripped
9 | (35/35) Accurately ripped
10 | (35/35) Accurately ripped
11 | (35/35) Accurately ripped
12 | (35/35) Accurately ripped
13 | (35/35) Accurately ripped
14 | (35/35) Accurately ripped
15 | (35/35) Accurately ripped
16 | (35/35) Accurately ripped

==== Log checksum 1DC703125C698B8A6348B4D753353985682319554BBF0A6D267D56CB860945AB ====

REM GENRE Metal
REM DATE 2017
REM DISCID E20EFC10
REM COMMENT “ExactAudioCopy v1.3”
PERFORMER “Five Finger Death Punch”
TITLE “A Decade Of Destruction”
REM COMPOSER “”
FILE “01 – Trouble.wav” WAVE
TRACK 01 AUDIO
TITLE “Trouble”
PERFORMER “Five Finger Death Punch”
REM COMPOSER “”
ISRC TCADH1751372
INDEX 01 00:00:00
FILE “02 – Gone Away.wav” WAVE
TRACK 02 AUDIO
TITLE “Gone Away”
PERFORMER “Five Finger Death Punch”
REM COMPOSER “”
ISRC TCADH1751905
INDEX 01 00:00:00
FILE “03 – Lift Me Up.wav” WAVE
TRACK 03 AUDIO
TITLE “Lift Me Up”
PERFORMER “Five Finger Death Punch”
REM COMPOSER “”
ISRC US5Z51300293
INDEX 01 00:00:00
FILE “04 – Wash It All Away.wav” WAVE
TRACK 04 AUDIO
TITLE “Wash It All Away”
PERFORMER “Five Finger Death Punch”
REM COMPOSER “”
ISRC US5Z51500624
INDEX 01 00:00:00
FILE “05 – Bad Company.wav” WAVE
TRACK 05 AUDIO
TITLE “Bad Company”
PERFORMER “Five Finger Death Punch”
REM COMPOSER “”
ISRC US5Z50900004
INDEX 01 00:00:00
FILE “06 – Under And Over It.wav” WAVE
TRACK 06 AUDIO
TITLE “Under And Over It”
PERFORMER “Five Finger Death Punch”
REM COMPOSER “”
ISRC US5Z50900074
INDEX 01 00:00:00
FILE “07 – Wrong Side Of Heaven.wav” WAVE
TRACK 07 AUDIO
TITLE “Wrong Side Of Heaven”
PERFORMER “Five Finger Death Punch”
REM COMPOSER “”
ISRC US5Z51300299
INDEX 01 00:00:00
FILE “08 – House Of The Rising Sun.wav” WAVE
TRACK 08 AUDIO
TITLE “House Of The Rising Sun”
PERFORMER “Five Finger Death Punch”
REM COMPOSER “”
ISRC US5Z51300416
INDEX 01 00:00:00
FILE “09 – I Apologize.wav” WAVE
TRACK 09 AUDIO
TITLE “I Apologize”
PERFORMER “Five Finger Death Punch”
REM COMPOSER “”
ISRC US5Z51500635
INDEX 01 00:00:00
FILE “10 – The Bleeding.wav” WAVE
TRACK 10 AUDIO
TITLE “The Bleeding”
PERFORMER “Five Finger Death Punch”
REM COMPOSER “”
ISRC US4VQ0660101
INDEX 01 00:00:00
FILE “11 – Jekyll And Hyde.wav” WAVE
TRACK 11 AUDIO
TITLE “Jekyll And Hyde”
PERFORMER “Five Finger Death Punch”
REM COMPOSER “”
ISRC US5Z51400620
INDEX 01 00:00:00
FILE “12 – Remember Everything.wav” WAVE
TRACK 12 AUDIO
TITLE “Remember Everything”
PERFORMER “Five Finger Death Punch”
REM COMPOSER “”
ISRC US5Z50900078
INDEX 01 00:00:00
FILE “13 – Coming Down.wav” WAVE
TRACK 13 AUDIO
TITLE “Coming Down”
PERFORMER “Five Finger Death Punch”
REM COMPOSER “”
ISRC US5Z50900077
INDEX 01 00:00:00
FILE “14 – My Nemesis.wav” WAVE
TRACK 14 AUDIO
TITLE “My Nemesis”
PERFORMER “Five Finger Death Punch”
REM COMPOSER “”
ISRC US5Z51500626
INDEX 01 00:00:00
FILE “15 – Battle Born.wav” WAVE
TRACK 15 AUDIO
TITLE “Battle Born”
PERFORMER “Five Finger Death Punch”
REM COMPOSER “”
ISRC US5Z51300408
INDEX 01 00:00:00
FILE “16 – Far From Home.wav” WAVE
TRACK 16 AUDIO
TITLE “Far From Home”
PERFORMER “Five Finger Death Punch”
REM COMPOSER “”
ISRC US5Z50900006
INDEX 01 00:00:00


Spread the Download

Leave a Reply

Your email address will not be published. Required fields are marked *

Enter the text from the image below
 

This site uses Akismet to reduce spam. Learn how your comment data is processed.