Fidlar – Almost Free




Artist: Fidlar
Year: 2019
Genre: Rock
Notes: Discogs
Add. Notes:
Cover incl.: Yes
Encoder: FLAC
Bitrate: ~1000 kBit/s (44.1 kHz/16 Bit/s)
Log & Cue incl.: Yes
Size: 297,78 MB
Password: “slam” (without ” “)


All Downloads/Hosters are compatible

Download 1
Turbobit.net
Rapidgator.net
KatFile.com
UploadRar.com
Download 2
Turbobit.net
Rapidgator.net
KatFile.com
UploadRar.com
Download 3
Turbobit.net
Rapidgator.net
KatFile.com
UploadRar.com

Tracklist:

1. Get Off My Rock 	
2. Can't You See 	
3. By Myself 	
4. Flake 	
5. Alcohol 	
6. Almost Free 	
7. Scam Likely 	
8. Called You Twice 	
9. Nuke 	
10. Too Real 	
11. Kick 	
12. Thought.Mouth. 	
13. Good Times Are Over

EAC-Log, CUE-Sheed & NFO:

Click to open spoiler
Exact Audio Copy V1.3 from 2. September 2016

EAC extraction logfile from 16. February 2019, 18:20

Fidlar / Almost Free

Used drive : HL-DT-STDVDRAM GP60NB50 Adapter: 1 ID: 1

Read mode : Secure
Utilize accurate stream : Yes
Defeat audio cache : Yes
Make use of C2 pointers : No

Read offset correction : 6
Overread into Lead-In and Lead-Out : No
Fill up missing offset samples with silence : Yes
Delete leading and trailing silent blocks : No
Null samples used in CRC calculations : Yes
Used interface : Native Win32 interface for Win NT & 2000
Gap handling : Appended to previous track

Used output format : User Defined Encoder
Selected bitrate : 1024 kBit/s
Quality : High
Add ID3 tag : No
Command line compressor : C:\flac-1.3.2-win\flac-1.3.2-win\win64\flac.exe
Additional command line options : -8 -e -p -V -T “ARTIST=%artist%” -T “TITLE=%title%” -T “ALBUM=%albumtitle%” -T “DATE=%year%” -T “TRACKNUMBER=%tracknr%” -T “GENRE=%genre%” -T “PERFORMER=%albuminterpret%” -T “COMPOSER=%composer%” %haslyrics%–tag-from-file=LYRICS=”%lyricsfile%”%haslyrics% -T “ALBUMARTIST=%albumartist%” -T “DISCNUMBER=%cdnumber%” -T “TOTALDISCS=%totalcds%” -T “TOTALTRACKS=%numtracks%” -T “COMMENT=%comment%” %source% -o %dest%

TOC of the extracted CD

Track | Start | Length | Start sector | End sector
———————————————————
1 | 0:00.00 | 3:17.60 | 0 | 14834
2 | 3:17.60 | 2:58.32 | 14835 | 28216
3 | 6:16.17 | 3:34.48 | 28217 | 44314
4 | 9:50.65 | 3:47.69 | 44315 | 61408
5 | 13:38.59 | 3:16.66 | 61409 | 76174
6 | 16:55.50 | 2:15.49 | 76175 | 86348
7 | 19:11.24 | 3:04.12 | 86349 | 100160
8 | 22:15.36 | 4:23.48 | 100161 | 119933
9 | 26:39.09 | 0:38.38 | 119934 | 122821
10 | 27:17.47 | 4:05.00 | 122822 | 141196
11 | 31:22.47 | 3:11.05 | 141197 | 155526
12 | 34:33.52 | 3:37.54 | 155527 | 171855
13 | 38:11.31 | 3:39.25 | 171856 | 188305

Track 1

Filename C:\EAC Rips\Fidlar – Almost Free (2019) [CD – FLAC] {Mom+Pop – LIB218CD}\01 – Get Off My Rock.wav

Pre-gap length 0:00:02.00

Peak level 99.8 %
Extraction speed 2.5 X
Track quality 100.0 %
Test CRC 1820B27F
Copy CRC 1820B27F
Track not present in AccurateRip database
Copy OK

Track 2

Filename C:\EAC Rips\Fidlar – Almost Free (2019) [CD – FLAC] {Mom+Pop – LIB218CD}\02 – Can’t You See.wav

Peak level 99.8 %
Extraction speed 2.6 X
Track quality 100.0 %
Test CRC 0CE02F71
Copy CRC 0CE02F71
Track not present in AccurateRip database
Copy OK

Track 3

Filename C:\EAC Rips\Fidlar – Almost Free (2019) [CD – FLAC] {Mom+Pop – LIB218CD}\03 – By Myself.wav

Peak level 99.8 %
Extraction speed 2.9 X
Track quality 100.0 %
Test CRC D26C0209
Copy CRC D26C0209
Track not present in AccurateRip database
Copy OK

Track 4

Filename C:\EAC Rips\Fidlar – Almost Free (2019) [CD – FLAC] {Mom+Pop – LIB218CD}\04 – Flake.wav

Peak level 99.8 %
Extraction speed 3.1 X
Track quality 100.0 %
Test CRC CCBFE853
Copy CRC CCBFE853
Track not present in AccurateRip database
Copy OK

Track 5

Filename C:\EAC Rips\Fidlar – Almost Free (2019) [CD – FLAC] {Mom+Pop – LIB218CD}\05 – Alcohol.wav

Peak level 99.9 %
Extraction speed 2.6 X
Track quality 99.9 %
Test CRC F253EFFD
Copy CRC F253EFFD
Track not present in AccurateRip database
Copy OK

Track 6

Filename C:\EAC Rips\Fidlar – Almost Free (2019) [CD – FLAC] {Mom+Pop – LIB218CD}\06 – Almost Free.wav

Peak level 99.8 %
Extraction speed 3.1 X
Track quality 100.0 %
Test CRC 5C6154F4
Copy CRC 5C6154F4
Track not present in AccurateRip database
Copy OK

Track 7

Filename C:\EAC Rips\Fidlar – Almost Free (2019) [CD – FLAC] {Mom+Pop – LIB218CD}\07 – Scam Likely.wav

Peak level 99.8 %
Extraction speed 3.4 X
Track quality 100.0 %
Test CRC 0CE1B9F7
Copy CRC 0CE1B9F7
Track not present in AccurateRip database
Copy OK

Track 8

Filename C:\EAC Rips\Fidlar – Almost Free (2019) [CD – FLAC] {Mom+Pop – LIB218CD}\08 – Called You Twice (feat. K.Flay).wav

Peak level 99.8 %
Extraction speed 3.8 X
Track quality 100.0 %
Test CRC AE65AA9A
Copy CRC AE65AA9A
Track not present in AccurateRip database
Copy OK

Track 9

Filename C:\EAC Rips\Fidlar – Almost Free (2019) [CD – FLAC] {Mom+Pop – LIB218CD}\09 – Nuke.wav

Peak level 99.8 %
Extraction speed 1.2 X
Track quality 99.7 %
Test CRC 54D225DB
Copy CRC 54D225DB
Track not present in AccurateRip database
Copy OK

Track 10

Filename C:\EAC Rips\Fidlar – Almost Free (2019) [CD – FLAC] {Mom+Pop – LIB218CD}\10 – Too Real.wav

Peak level 98.8 %
Extraction speed 3.2 X
Track quality 99.9 %
Test CRC 1511166D
Copy CRC 1511166D
Track not present in AccurateRip database
Copy OK

Track 11

Filename C:\EAC Rips\Fidlar – Almost Free (2019) [CD – FLAC] {Mom+Pop – LIB218CD}\11 – Kick.wav

Peak level 99.0 %
Extraction speed 3.9 X
Track quality 100.0 %
Test CRC 68B2BCFD
Copy CRC 68B2BCFD
Track not present in AccurateRip database
Copy OK

Track 12

Filename C:\EAC Rips\Fidlar – Almost Free (2019) [CD – FLAC] {Mom+Pop – LIB218CD}\12 – Thought.Mouth..wav

Peak level 99.8 %
Extraction speed 4.1 X
Track quality 100.0 %
Test CRC BC5DAF75
Copy CRC BC5DAF75
Track not present in AccurateRip database
Copy OK

Track 13

Filename C:\EAC Rips\Fidlar – Almost Free (2019) [CD – FLAC] {Mom+Pop – LIB218CD}\13 – Good Times Are Over.wav

Peak level 99.8 %
Extraction speed 4.3 X
Track quality 100.0 %
Test CRC 8FC9ABCA
Copy CRC 8FC9ABCA
Track not present in AccurateRip database
Copy OK

None of the tracks are present in the AccurateRip database

No errors occurred

End of status report

==== Log checksum 2CA36CA74994EB805F49C4FF813ABEA678A9E3A290D2BEC4AC1703E053DE363A ====

REM GENRE Rock
REM DATE 2019
REM DISCID B009CE0D
REM COMMENT “ExactAudioCopy v1.3”
CATALOG 0858275051520
PERFORMER “Fidlar”
TITLE “Almost Free”
REM COMPOSER “”
FILE “01 – Get Off My Rock.wav” WAVE
TRACK 01 AUDIO
TITLE “Get Off My Rock”
PERFORMER “Fidlar”
REM COMPOSER “”
ISRC USQE91500678
INDEX 01 00:00:00
FILE “02 – Can’t You See.wav” WAVE
TRACK 02 AUDIO
TITLE “Can’t You See”
PERFORMER “Fidlar”
REM COMPOSER “”
ISRC USQE91500679
INDEX 01 00:00:00
FILE “03 – By Myself.wav” WAVE
TRACK 03 AUDIO
TITLE “By Myself”
PERFORMER “Fidlar”
REM COMPOSER “”
ISRC USQE91500680
INDEX 01 00:00:00
FILE “04 – Flake.wav” WAVE
TRACK 04 AUDIO
TITLE “Flake”
PERFORMER “Fidlar”
REM COMPOSER “”
ISRC USQE91500681
INDEX 01 00:00:00
FILE “05 – Alcohol.wav” WAVE
TRACK 05 AUDIO
TITLE “Alcohol”
PERFORMER “Fidlar”
REM COMPOSER “”
ISRC USQE91500511
INDEX 01 00:00:00
FILE “06 – Almost Free.wav” WAVE
TRACK 06 AUDIO
TITLE “Almost Free”
PERFORMER “Fidlar”
REM COMPOSER “”
ISRC USQE91500683
INDEX 01 00:00:00
FILE “07 – Scam Likely.wav” WAVE
TRACK 07 AUDIO
TITLE “Scam Likely”
PERFORMER “Fidlar”
REM COMPOSER “”
ISRC USQE91500684
INDEX 01 00:00:00
FILE “08 – Called You Twice (feat. K.Flay).wav” WAVE
TRACK 08 AUDIO
TITLE “Called You Twice (feat. K.Flay)”
PERFORMER “Fidlar”
REM COMPOSER “”
ISRC USQE91500685
INDEX 01 00:00:00
FILE “09 – Nuke.wav” WAVE
TRACK 09 AUDIO
TITLE “Nuke”
PERFORMER “Fidlar”
REM COMPOSER “”
ISRC USQE91500686
INDEX 01 00:00:00
FILE “10 – Too Real.wav” WAVE
TRACK 10 AUDIO
TITLE “Too Real”
PERFORMER “Fidlar”
REM COMPOSER “”
ISRC USQE91500686
INDEX 01 00:00:00
FILE “11 – Kick.wav” WAVE
TRACK 11 AUDIO
TITLE “Kick”
PERFORMER “Fidlar”
REM COMPOSER “”
ISRC USQE91500688
INDEX 01 00:00:00
FILE “12 – Thought.Mouth..wav” WAVE
TRACK 12 AUDIO
TITLE “Thought.Mouth.”
PERFORMER “Fidlar”
REM COMPOSER “”
ISRC USQE91500689
INDEX 01 00:00:00
FILE “13 – Good Times Are Over.wav” WAVE
TRACK 13 AUDIO
TITLE “Good Times Are Over”
PERFORMER “Fidlar”
REM COMPOSER “”
ISRC USQE91500690
INDEX 01 00:00:00


Leave a Reply

Your email address will not be published. Required fields are marked *

This site uses Akismet to reduce spam. Learn how your comment data is processed.