Fiddler’s Green – Nu Folk




Artist: Fiddler’s Green
Year: 2003
Genre: Rock
Notes: Discogs
Add. Notes:
Cover incl.: Yes
Encoder: FLAC
Bitrate: ~900 kBit/s (44.1 kHz/16 Bit/s)
Log & Cue incl.: Yes
Size: 464,76 MB
Password: “slam” (without ” “)


All Downloads/Hosters are compatible

Download 1
Turbobit.net
Rapidgator.net
UploadEver.com
KatFile.com
UsersDrive.com
Download 2
Turbobit.net
Rapidgator.net
UploadEver.com
KatFile.com
UsersDrive.com
Download 3
Turbobit.net
Rapidgator.net
UploadEver.com
KatFile.com
UsersDrive.com

Tracklist:

1 - Tarry Trousers - 3:06
2 - Wild Life - 4:08
3 - Shut Up And Dance - 3:44
4 - Goldwatch Blues - 3:53
5 - Fragile - 4:30
6 - Johnson Boys/Cotton-Eyed Joe - 3:34
7 - I'll Be There - 3:03
8 - 1000 Million Pieces - 5:23
9 - Nu Chicks - 5:15
10 - Celebrate - 3:10
11 - Popcorn - 3:42
12 - Lullaby - 5:01
13 - Make No War - 3:26
14 - Part Of It - 3:29
15 - Silence - 4:13
16 - Jigs For Free - 6:15

EAC-Log, CUE-Sheed & NFO:

Click to open spoiler
Exact Audio Copy V0.99 prebeta 5 from 4. May 2009

Отчёт EAC об извлечении, выполненном 28. августа 2011, 19:42

Fiddler’s Green / Nu Folk

Дисковод: TEAC DW-552G Adapter: 0 ID: 0

Режим чтения : Достоверность
Использование точного потока : Да
Отключение кэша аудио : Да
Использование указателей C2 : Нет

Коррекция смещения при чтении : 6
Способность читать области Lead-in и Lead-out : Нет
Заполнение пропущенных сэмплов тишиной : Да
Удаление блоков с тишиной в начале и конце : Нет
При вычислениях CRC использовались нулевые сэмплы : Да
Интерфейс : Встроенный Win32-интерфейс для Win NT/2000
Обработка зазоров : Добавлено к предыдущему треку

Выходной формат : Пользовательский кодировщик
Выбранный битрейт : 128 kBit/s
Качество : Высокий
Добавление ID3-тэга : Нет
Утилита сжатия : C:\Program Files\Exact Audio Copy\FLAC\FLAC.EXE
Дополнительные параметры : -8 -V -T “ARTIST=%a” -T “TITLE=%t” -T “ALBUM=%g” -T “DATE=%y” -T “TRACKNUMBER=%n” -T “GENRE=%m” -T “COMMENT=EAC FLAC -8” %s

TOC извлечённого CD

Трек | Старт | Длительность | Начальный сектор | Конечный сектор
———————————————————————
1 | 0:00.00 | 3:06.15 | 0 | 13964
2 | 3:06.15 | 4:08.69 | 13965 | 32633
3 | 7:15.09 | 3:44.71 | 32634 | 49504
4 | 11:00.05 | 3:53.57 | 49505 | 67036
5 | 14:53.62 | 4:30.74 | 67037 | 87360
6 | 19:24.61 | 3:34.37 | 87361 | 103447
7 | 22:59.23 | 3:03.37 | 103448 | 117209
8 | 26:02.60 | 5:23.36 | 117210 | 141470
9 | 31:26.21 | 5:15.09 | 141471 | 165104
10 | 36:41.30 | 3:10.01 | 165105 | 179355
11 | 39:51.31 | 3:42.12 | 179356 | 196017
12 | 43:33.43 | 5:01.59 | 196018 | 218651
13 | 48:35.27 | 3:26.44 | 218652 | 234145
14 | 52:01.71 | 3:30.42 | 234146 | 249937
15 | 55:32.38 | 10:28.47 | 249938 | 297084

Трек 1

Имя файла D:\EAC\Fiddler’s Green\Fiddler’s Green – 2003 – Nu Folk\01 Tarry Trousers.wav

Длина предзазора 0:00:02.00

Пиковый уровень 97.7 %
Качество трека 100.0 %
CRC теста CE2F3A9B
CRC копии CE2F3A9B
Точное извлечение (достоверность 2) [7C675782]
Копирование… OK

Трек 2

Имя файла D:\EAC\Fiddler’s Green\Fiddler’s Green – 2003 – Nu Folk\02 Wild Life.wav

Пиковый уровень 97.7 %
Качество трека 99.8 %
CRC теста 609B35B4
CRC копии 609B35B4
Точное извлечение (достоверность 3) [DDB77CE8]
Копирование… OK

Трек 3

Имя файла D:\EAC\Fiddler’s Green\Fiddler’s Green – 2003 – Nu Folk\03 Shut Up And Dance.wav

Пиковый уровень 97.7 %
Качество трека 100.0 %
CRC теста 27FC99D8
CRC копии 27FC99D8
Точное извлечение (достоверность 3) [4277970D]
Копирование… OK

Трек 4

Имя файла D:\EAC\Fiddler’s Green\Fiddler’s Green – 2003 – Nu Folk\04 Goldwatch Blues.wav

Длина предзазора 0:00:01.29

Пиковый уровень 98.8 %
Качество трека 99.9 %
CRC теста C3EDBCEE
CRC копии C3EDBCEE
Точное извлечение (достоверность 3) [79DD378A]
Копирование… OK

Трек 5

Имя файла D:\EAC\Fiddler’s Green\Fiddler’s Green – 2003 – Nu Folk\05 Fragile.wav

Длина предзазора 0:00:02.44

Пиковый уровень 97.7 %
Качество трека 99.9 %
CRC теста F1C6E931
CRC копии F1C6E931
Точное извлечение (достоверность 3) [08BB4D24]
Копирование… OK

Трек 6

Имя файла D:\EAC\Fiddler’s Green\Fiddler’s Green – 2003 – Nu Folk\06 Johnson Boys – Cotton Eyed Joe.wav

Пиковый уровень 97.7 %
Качество трека 99.9 %
CRC теста FE09C12A
CRC копии FE09C12A
Точное извлечение (достоверность 3) [30343256]
Копирование… OK

Трек 7

Имя файла D:\EAC\Fiddler’s Green\Fiddler’s Green – 2003 – Nu Folk\07 I’ll Be There.wav

Пиковый уровень 97.7 %
Качество трека 99.8 %
CRC теста FCC3FA9E
CRC копии FCC3FA9E
Точное извлечение (достоверность 3) [B58CD688]
Копирование… OK

Трек 8

Имя файла D:\EAC\Fiddler’s Green\Fiddler’s Green – 2003 – Nu Folk\08 1000 Million Pieces.wav

Пиковый уровень 97.7 %
Качество трека 100.0 %
CRC теста E53BA77A
CRC копии E53BA77A
Точное извлечение (достоверность 3) [D65A3658]
Копирование… OK

Трек 9

Имя файла D:\EAC\Fiddler’s Green\Fiddler’s Green – 2003 – Nu Folk\09 Nu Chicks.wav

Длина предзазора 0:00:02.00

Пиковый уровень 97.7 %
Качество трека 99.9 %
CRC теста 7EB541B1
CRC копии 7EB541B1
Точное извлечение (достоверность 3) [457C673D]
Копирование… OK

Трек 10

Имя файла D:\EAC\Fiddler’s Green\Fiddler’s Green – 2003 – Nu Folk\10 Celebrate.wav

Пиковый уровень 97.7 %
Качество трека 100.0 %
CRC теста 0ACA8E05
CRC копии 0ACA8E05
Точное извлечение (достоверность 3) [2AE440E7]
Копирование… OK

Трек 11

Имя файла D:\EAC\Fiddler’s Green\Fiddler’s Green – 2003 – Nu Folk\11 Popcorn.wav

Длина предзазора 0:00:02.29

Пиковый уровень 97.7 %
Качество трека 99.9 %
CRC теста 3D304238
CRC копии 3D304238
Точное извлечение (достоверность 3) [77E5AE04]
Копирование… OK

Трек 12

Имя файла D:\EAC\Fiddler’s Green\Fiddler’s Green – 2003 – Nu Folk\12 Lullaby.wav

Пиковый уровень 97.7 %
Качество трека 100.0 %
CRC теста C1293D25
CRC копии C1293D25
Точное извлечение (достоверность 3) [20F7A132]
Копирование… OK

Трек 13

Имя файла D:\EAC\Fiddler’s Green\Fiddler’s Green – 2003 – Nu Folk\13 Make No War.wav

Пиковый уровень 98.8 %
Качество трека 100.0 %
CRC теста C72B35C1
CRC копии C72B35C1
Точное извлечение (достоверность 3) [07FD53B9]
Копирование… OK

Трек 14

Имя файла D:\EAC\Fiddler’s Green\Fiddler’s Green – 2003 – Nu Folk\14 Part Of It.wav

Пиковый уровень 98.8 %
Качество трека 100.0 %
CRC теста BA52F537
CRC копии BA52F537
Точное извлечение (достоверность 3) [43A0571A]
Копирование… OK

Трек 15

Имя файла D:\EAC\Fiddler’s Green\Fiddler’s Green – 2003 – Nu Folk\15 Silence.wav

Длина предзазора 0:00:06.29

Пиковый уровень 99.7 %
Качество трека 99.9 %
CRC теста A8EFF2B1
CRC копии A8EFF2B1
Точное извлечение (достоверность 2) [CF9232BE]
Копирование… OK

Все треки извлечены точно

Ошибок не произошло

Конец отчёта

REM GENRE Speedfolk
REM DATE 2003
REM DISCID D80F790F
REM COMMENT “ExactAudioCopy v0.99pb5”
PERFORMER “Fiddler’s Green”
TITLE “Nu Folk”
FILE “01 Tarry Trousers.wav” WAVE
TRACK 01 AUDIO
TITLE “Tarry Trousers”
PERFORMER “Fiddler’s Green”
INDEX 01 00:00:00
FILE “02 Wild Life.wav” WAVE
TRACK 02 AUDIO
TITLE “Wild Life”
PERFORMER “Fiddler’s Green”
INDEX 01 00:00:00
FILE “03 Shut Up And Dance.wav” WAVE
TRACK 03 AUDIO
TITLE “Shut Up And Dance”
PERFORMER “Fiddler’s Green”
INDEX 01 00:00:00
TRACK 04 AUDIO
TITLE “Goldwatch Blues”
PERFORMER “Fiddler’s Green”
INDEX 00 03:43:49
FILE “04 Goldwatch Blues.wav” WAVE
INDEX 01 00:00:00
TRACK 05 AUDIO
TITLE “Fragile”
PERFORMER “Fiddler’s Green”
INDEX 00 03:51:24
FILE “05 Fragile.wav” WAVE
INDEX 01 00:00:00
FILE “06 Johnson Boys – Cotton Eyed Joe.wav” WAVE
TRACK 06 AUDIO
TITLE “Johnson Boys \ Cotton Eyed Joe”
PERFORMER “Fiddler’s Green”
INDEX 01 00:00:00
FILE “07 I’ll Be There.wav” WAVE
TRACK 07 AUDIO
TITLE “I’ll Be There”
PERFORMER “Fiddler’s Green”
INDEX 01 00:00:00
FILE “08 1000 Million Pieces.wav” WAVE
TRACK 08 AUDIO
TITLE “1000 Million Pieces”
PERFORMER “Fiddler’s Green”
INDEX 01 00:00:00
TRACK 09 AUDIO
TITLE “Nu Chicks”
PERFORMER “Fiddler’s Green”
INDEX 00 05:21:36
FILE “09 Nu Chicks.wav” WAVE
INDEX 01 00:00:00
FILE “10 Celebrate.wav” WAVE
TRACK 10 AUDIO
TITLE “Celebrate”
PERFORMER “Fiddler’s Green”
INDEX 01 00:00:00
TRACK 11 AUDIO
TITLE “Popcorn”
PERFORMER “Fiddler’s Green”
INDEX 00 03:07:54
FILE “11 Popcorn.wav” WAVE
INDEX 01 00:00:00
FILE “12 Lullaby.wav” WAVE
TRACK 12 AUDIO
TITLE “Lullaby”
PERFORMER “Fiddler’s Green”
INDEX 01 00:00:00
FILE “13 Make No War.wav” WAVE
TRACK 13 AUDIO
TITLE “Make No War”
PERFORMER “Fiddler’s Green”
INDEX 01 00:00:00
FILE “14 Part Of It.wav” WAVE
TRACK 14 AUDIO
TITLE “Part Of It”
PERFORMER “Fiddler’s Green”
INDEX 01 00:00:00
TRACK 15 AUDIO
TITLE “Silence”
PERFORMER “Fiddler’s Green”
INDEX 00 03:24:20
FILE “15 Silence.wav” WAVE
INDEX 01 00:00:00


Leave a Reply

Your email address will not be published. Required fields are marked *

This site uses Akismet to reduce spam. Learn how your comment data is processed.