Fiddler’s Green – King Shepherd




No Cover available

Artist: Fiddler’s Green
Year: 1995
Genre: Rock
Notes: Discogs
Add. Notes:
Watch Songs on: YouTube
Cover incl.: Yes
Encoder: FLAC
Bitrate: ~900 kBit/s (44.1 kHz/16 Bit/s)
Log & Cue incl.: Yes
Size: 805,18 MB
Password: “slam” (without ” “)


All Downloads/Hosters are compatible

Download 1
KatFile.com
Turbobit.net
FileFactory.com
Rapidgator.net
Download 2
KatFile.com
Turbobit.net
FileFactory.com
Rapidgator.net

Tracklist:

1 - Market Day/Tom Barret's - 3:04
2 - Crack In The Border - 3:27
3 - Sherwood Forest (Black Sheep Rad II) - 3:06
4 - Lanigan's Ball - 3:14
5 - Stay By My Side - 4:18
6 - Rose Of Ballymore - 3:02
7 - Polkas: Walshe's, Ballydesmond No.1 & 2, Glenside 
Polka, Kerry Polka No.2 - 4:15
8 - Tribal Dance - 3:07
9 - Rainbow Warrior - 4:45
10 - The Mermaid - 2:47
11 - Shamrock Busker - 3:34
12 - Another Ring Of Fire - 2:06
13 - Little Beggarman - 2:48
14 - Worker's Song/Denis Murphy's - 3:47
15 - Hip Hurray - 3:21
16 - Haunted - 3:37
Bonus Star-Treks
17 - Ra Ra Ra - 1:24
18 - One Way Out - 3:55

EAC-Log, CUE-Sheed & NFO:

Click to open spoiler
Exact Audio Copy V0.99 prebeta 5 from 4. May 2009

Отчёт EAC об извлечении, выполненном 27. августа 2011, 23:47

Fiddler’s Green / King Shepherd

Дисковод: TEAC DW-552G Adapter: 0 ID: 0

Режим чтения : Достоверность
Использование точного потока : Да
Отключение кэша аудио : Да
Использование указателей C2 : Нет

Коррекция смещения при чтении : 6
Способность читать области Lead-in и Lead-out : Нет
Заполнение пропущенных сэмплов тишиной : Да
Удаление блоков с тишиной в начале и конце : Нет
При вычислениях CRC использовались нулевые сэмплы : Да
Интерфейс : Встроенный Win32-интерфейс для Win NT/2000
Обработка зазоров : Добавлено к предыдущему треку

Выходной формат : Пользовательский кодировщик
Выбранный битрейт : 128 kBit/s
Качество : Высокий
Добавление ID3-тэга : Нет
Утилита сжатия : C:\Program Files\Exact Audio Copy\FLAC\FLAC.EXE
Дополнительные параметры : -8 -V -T “ARTIST=%a” -T “TITLE=%t” -T “ALBUM=%g” -T “DATE=%y” -T “TRACKNUMBER=%n” -T “GENRE=%m” -T “COMMENT=EAC FLAC -8” %s

TOC извлечённого CD

Трек | Старт | Длительность | Начальный сектор | Конечный сектор
———————————————————————
1 | 0:00.30 | 3:04.11 | 30 | 13840
2 | 3:04.41 | 3:27.20 | 13841 | 29385
3 | 6:31.61 | 3:06.53 | 29386 | 43388
4 | 9:38.39 | 3:14.60 | 43389 | 57998
5 | 12:53.24 | 4:18.53 | 57999 | 77401
6 | 17:12.02 | 3:02.60 | 77402 | 91111
7 | 20:14.62 | 4:15.35 | 91112 | 110271
8 | 24:30.22 | 3:07.41 | 110272 | 124337
9 | 27:37.63 | 4:45.65 | 124338 | 145777
10 | 32:23.53 | 2:47.71 | 145778 | 158373
11 | 35:11.49 | 3:34.40 | 158374 | 174463
12 | 38:46.14 | 2:06.26 | 174464 | 183939
13 | 40:52.40 | 2:48.04 | 183940 | 196543
14 | 43:40.44 | 3:47.57 | 196544 | 213625
15 | 47:28.26 | 3:21.04 | 213626 | 228704
16 | 50:49.30 | 3:37.09 | 228705 | 244988
17 | 54:26.39 | 1:24.74 | 244989 | 251362
18 | 55:51.38 | 3:55.74 | 251363 | 269061

Трек 1

Имя файла D:\EAC\Fiddler’s Green\Fiddler’s Green – 1995 – King Shepherd\01 Market Day , Tom Barret’s.wav

Длина предзазора 0:00:02.40

Пиковый уровень 100.0 %
Качество трека 100.0 %
CRC теста 66340B4B
CRC копии 66340B4B
Точное извлечение (достоверность 3) [C54FD06F]
Копирование… OK

Трек 2

Имя файла D:\EAC\Fiddler’s Green\Fiddler’s Green – 1995 – King Shepherd\02 Crack In The Border.wav

Пиковый уровень 100.0 %
Качество трека 100.0 %
CRC теста A4F25EB8
CRC копии A4F25EB8
Точное извлечение (достоверность 3) [A7424824]
Копирование… OK

Трек 3

Имя файла D:\EAC\Fiddler’s Green\Fiddler’s Green – 1995 – King Shepherd\03 Sherwood Forest (Black Sheep Rag II).wav

Пиковый уровень 100.0 %
Качество трека 100.0 %
CRC теста 967DE49C
CRC копии 967DE49C
Точное извлечение (достоверность 3) [A6BE20D2]
Копирование… OK

Трек 4

Имя файла D:\EAC\Fiddler’s Green\Fiddler’s Green – 1995 – King Shepherd\04 Lanigan’s Ball.wav

Пиковый уровень 100.0 %
Качество трека 100.0 %
CRC теста 3FE27C8B
CRC копии 3FE27C8B
Точное извлечение (достоверность 3) [0DBE8CE0]
Копирование… OK

Трек 5

Имя файла D:\EAC\Fiddler’s Green\Fiddler’s Green – 1995 – King Shepherd\05 Stay By My Side.wav

Пиковый уровень 100.0 %
Качество трека 100.0 %
CRC теста 02708829
CRC копии 02708829
Точное извлечение (достоверность 3) [FD458EDF]
Копирование… OK

Трек 6

Имя файла D:\EAC\Fiddler’s Green\Fiddler’s Green – 1995 – King Shepherd\06 Rose Of Ballymore.wav

Пиковый уровень 100.0 %
Качество трека 99.8 %
CRC теста A4FDC4B8
CRC копии A4FDC4B8
Точное извлечение (достоверность 3) [DA617012]
Копирование… OK

Трек 7

Имя файла D:\EAC\Fiddler’s Green\Fiddler’s Green – 1995 – King Shepherd\07 Polkas- Walshe’s, Ballydesmond No 1 & 2, Glenside Polka, Kerry Polka No 2.wav

Пиковый уровень 100.0 %
Качество трека 100.0 %
CRC теста 6B84D6FB
CRC копии 6B84D6FB
Точное извлечение (достоверность 3) [64861D9E]
Копирование… OK

Трек 8

Имя файла D:\EAC\Fiddler’s Green\Fiddler’s Green – 1995 – King Shepherd\08 Tribal Dance.wav

Пиковый уровень 100.0 %
Качество трека 100.0 %
CRC теста CFE8DF16
CRC копии CFE8DF16
Точное извлечение (достоверность 3) [6790530D]
Копирование… OK

Трек 9

Имя файла D:\EAC\Fiddler’s Green\Fiddler’s Green – 1995 – King Shepherd\09 Rainbow Warrior.wav

Пиковый уровень 100.0 %
Качество трека 99.9 %
CRC теста 6651C897
CRC копии 6651C897
Точное извлечение (достоверность 3) [8C6BC462]
Копирование… OK

Трек 10

Имя файла D:\EAC\Fiddler’s Green\Fiddler’s Green – 1995 – King Shepherd\10 The Mermaid.wav

Пиковый уровень 100.0 %
Качество трека 100.0 %
CRC теста F1B10AB0
CRC копии F1B10AB0
Точное извлечение (достоверность 2) [FA4BAA50]
Копирование… OK

Трек 11

Имя файла D:\EAC\Fiddler’s Green\Fiddler’s Green – 1995 – King Shepherd\11 Shamrock Busker.wav

Пиковый уровень 100.0 %
Качество трека 99.9 %
CRC теста E90F07BF
CRC копии E90F07BF
Точное извлечение (достоверность 2) [96F5D021]
Копирование… OK

Трек 12

Имя файла D:\EAC\Fiddler’s Green\Fiddler’s Green – 1995 – King Shepherd\12 Another Ring Of Fire.wav

Пиковый уровень 100.0 %
Качество трека 99.9 %
CRC теста CE8B3482
CRC копии CE8B3482
Точное извлечение (достоверность 3) [5074309D]
Копирование… OK

Трек 13

Имя файла D:\EAC\Fiddler’s Green\Fiddler’s Green – 1995 – King Shepherd\13 Little Beggarman.wav

Пиковый уровень 100.0 %
Качество трека 100.0 %
CRC теста 79DBA91D
CRC копии 79DBA91D
Точное извлечение (достоверность 3) [FC512382]
Копирование… OK

Трек 14

Имя файла D:\EAC\Fiddler’s Green\Fiddler’s Green – 1995 – King Shepherd\14 Worker’s Song , Denis Murphy’s.wav

Пиковый уровень 100.0 %
Качество трека 100.0 %
CRC теста 40B95416
CRC копии 40B95416
Точное извлечение (достоверность 3) [BA1AC013]
Копирование… OK

Трек 15

Имя файла D:\EAC\Fiddler’s Green\Fiddler’s Green – 1995 – King Shepherd\15 Hip Hurray.wav

Пиковый уровень 100.0 %
Качество трека 100.0 %
CRC теста ECD264ED
CRC копии ECD264ED
Точное извлечение (достоверность 3) [D72C9B37]
Копирование… OK

Трек 16

Имя файла D:\EAC\Fiddler’s Green\Fiddler’s Green – 1995 – King Shepherd\16 Haunted.wav

Пиковый уровень 100.0 %
Качество трека 100.0 %
CRC теста 3512A9FC
CRC копии 3512A9FC
Точное извлечение (достоверность 3) [47BEB84B]
Копирование… OK

Трек 17

Имя файла D:\EAC\Fiddler’s Green\Fiddler’s Green – 1995 – King Shepherd\17 Ra Ra Ra Venezuela.wav

Пиковый уровень 100.0 %
Качество трека 99.8 %
CRC теста 9259DDB0
CRC копии 9259DDB0
Точное извлечение (достоверность 3) [D01CC44F]
Копирование… OK

Трек 18

Имя файла D:\EAC\Fiddler’s Green\Fiddler’s Green – 1995 – King Shepherd\18 One Way Out.wav

Пиковый уровень 100.0 %
Качество трека 100.0 %
CRC теста B6DE8505
CRC копии B6DE8505
Точность не определена (достоверность 10) [71879238], AccurateRip вернул [0CA793FB]
Копирование… OK

17 трек(и) скопированы точно
1 трек(и) не удалось проверить на точность

Некоторые треки не прошли проверку на точность

Ошибок не произошло

Конец отчёта

REM GENRE Speedfolk
REM DATE 1995
REM DISCID F20E0312
REM COMMENT “ExactAudioCopy v0.99pb5”
PERFORMER “Fiddler’s Green”
TITLE “King Shepherd”
FILE “01 Market Day , Tom Barret’s.wav” WAVE
TRACK 01 AUDIO
TITLE “Market Day / Tom Barret’s”
PERFORMER “Fiddler’s Green”
PREGAP 00:00:30
INDEX 01 00:00:00
FILE “02 Crack In The Border.wav” WAVE
TRACK 02 AUDIO
TITLE “Crack In The Border”
PERFORMER “Fiddler’s Green”
INDEX 01 00:00:00
FILE “03 Sherwood Forest (Black Sheep Rag II).wav” WAVE
TRACK 03 AUDIO
TITLE “Sherwood Forest (Black Sheep Rag II)”
PERFORMER “Fiddler’s Green”
INDEX 01 00:00:00
FILE “04 Lanigan’s Ball.wav” WAVE
TRACK 04 AUDIO
TITLE “Lanigan’s Ball”
PERFORMER “Fiddler’s Green”
INDEX 01 00:00:00
FILE “05 Stay By My Side.wav” WAVE
TRACK 05 AUDIO
TITLE “Stay By My Side”
PERFORMER “Fiddler’s Green”
INDEX 01 00:00:00
FILE “06 Rose Of Ballymore.wav” WAVE
TRACK 06 AUDIO
TITLE “Rose Of Ballymore”
PERFORMER “Fiddler’s Green”
INDEX 01 00:00:00
FILE “07 Polkas- Walshe’s, Ballydesmond No 1 & 2, Glenside Polka, Kerry Polka No 2.wav” WAVE
TRACK 07 AUDIO
TITLE “Polkas: Walshe’s, Ballydesmond No 1 & 2, Glenside Polka, Kerry Polka No 2”
PERFORMER “Fiddler’s Green”
INDEX 01 00:00:00
FILE “08 Tribal Dance.wav” WAVE
TRACK 08 AUDIO
TITLE “Tribal Dance”
PERFORMER “Fiddler’s Green”
INDEX 01 00:00:00
FILE “09 Rainbow Warrior.wav” WAVE
TRACK 09 AUDIO
TITLE “Rainbow Warrior”
PERFORMER “Fiddler’s Green”
INDEX 01 00:00:00
FILE “10 The Mermaid.wav” WAVE
TRACK 10 AUDIO
TITLE “The Mermaid”
PERFORMER “Fiddler’s Green”
INDEX 01 00:00:00
FILE “11 Shamrock Busker.wav” WAVE
TRACK 11 AUDIO
TITLE “Shamrock Busker”
PERFORMER “Fiddler’s Green”
INDEX 01 00:00:00
FILE “12 Another Ring Of Fire.wav” WAVE
TRACK 12 AUDIO
TITLE “Another Ring Of Fire”
PERFORMER “Fiddler’s Green”
INDEX 01 00:00:00
FILE “13 Little Beggarman.wav” WAVE
TRACK 13 AUDIO
TITLE “Little Beggarman”
PERFORMER “Fiddler’s Green”
INDEX 01 00:00:00
FILE “14 Worker’s Song , Denis Murphy’s.wav” WAVE
TRACK 14 AUDIO
TITLE “Worker’s Song / Denis Murphy’s”
PERFORMER “Fiddler’s Green”
INDEX 01 00:00:00
FILE “15 Hip Hurray.wav” WAVE
TRACK 15 AUDIO
TITLE “Hip Hurray”
PERFORMER “Fiddler’s Green”
INDEX 01 00:00:00
FILE “16 Haunted.wav” WAVE
TRACK 16 AUDIO
TITLE “Haunted”
PERFORMER “Fiddler’s Green”
INDEX 01 00:00:00
FILE “17 Ra Ra Ra Venezuela.wav” WAVE
TRACK 17 AUDIO
TITLE “Ra Ra Ra Venezuela”
PERFORMER “Fiddler’s Green”
INDEX 01 00:00:00
FILE “18 One Way Out.wav” WAVE
TRACK 18 AUDIO
TITLE “One Way Out”
PERFORMER “Fiddler’s Green”
INDEX 01 00:00:00


Leave a Reply

Your email address will not be published. Required fields are marked *

Enter the text from the image below
 

This site uses Akismet to reduce spam. Learn how your comment data is processed.