Fiddler’s Green – Folk Raider




Artist: Fiddler’s Green
Year: 2002
Genre: Rock
Notes: Discogs
Add. Notes:
Cover incl.: Yes
Encoder: FLAC
Bitrate: ~900 kBit/s (44.1 kHz/16 Bit/s)
Log & Cue incl.: Yes
Size: 415,16 MB
Password: “slam” (without ” “)


All Downloads/Hosters are compatible

Download 1
Turbobit.net
Rapidgator.net
UploadEver.com
KatFile.com
UsersDrive.com
Download 2
Turbobit.net
Rapidgator.net
UploadEver.com
KatFile.com
UsersDrive.com
Download 3
Turbobit.net
Rapidgator.net
UploadEver.com
KatFile.com
UsersDrive.com

Tracklist:

1. Bonnie Ship The Diamond 
2. Don't Stand So 
3. Weaver's Reel 
4. Folk Raider 
5. Out Of The Rain 
6. The Crawl 
7. Picard Jigs 
8. Whiskey In The Spa 
9. My Baby's Gone 
10. Girls Along The Road 
11. Out Of Our Life 
12. Take Me To 
13. Splendid Isolation 
14. Tangerine

EAC-Log, CUE-Sheed & NFO:

Click to open spoiler
Exact Audio Copy V0.99 prebeta 5 from 4. May 2009

Отчёт EAC об извлечении, выполненном 28. августа 2011, 18:24

Fiddler’s Green / Folk Raider

Дисковод: TEAC DW-552G Adapter: 0 ID: 0

Режим чтения : Достоверность
Использование точного потока : Да
Отключение кэша аудио : Да
Использование указателей C2 : Нет

Коррекция смещения при чтении : 6
Способность читать области Lead-in и Lead-out : Нет
Заполнение пропущенных сэмплов тишиной : Да
Удаление блоков с тишиной в начале и конце : Нет
При вычислениях CRC использовались нулевые сэмплы : Да
Интерфейс : Встроенный Win32-интерфейс для Win NT/2000
Обработка зазоров : Добавлено к предыдущему треку

Выходной формат : Пользовательский кодировщик
Выбранный битрейт : 128 kBit/s
Качество : Высокий
Добавление ID3-тэга : Нет
Утилита сжатия : C:\Program Files\Exact Audio Copy\FLAC\FLAC.EXE
Дополнительные параметры : -8 -V -T “ARTIST=%a” -T “TITLE=%t” -T “ALBUM=%g” -T “DATE=%y” -T “TRACKNUMBER=%n” -T “GENRE=%m” -T “COMMENT=EAC FLAC -8” %s

TOC извлечённого CD

Трек | Старт | Длительность | Начальный сектор | Конечный сектор
———————————————————————
1 | 0:00.00 | 3:35.38 | 0 | 16162
2 | 3:35.38 | 3:20.15 | 16163 | 31177
3 | 6:55.53 | 3:27.59 | 31178 | 46761
4 | 10:23.37 | 3:39.25 | 46762 | 63211
5 | 14:02.62 | 3:51.69 | 63212 | 80605
6 | 17:54.56 | 3:48.63 | 80606 | 97768
7 | 21:43.44 | 6:29.07 | 97769 | 126950
8 | 28:12.51 | 4:32.32 | 126951 | 147382
9 | 32:45.08 | 3:08.11 | 147383 | 161493
10 | 35:53.19 | 3:39.00 | 161494 | 177918
11 | 39:32.19 | 5:38.05 | 177919 | 203273
12 | 45:10.24 | 4:22.72 | 203274 | 222995
13 | 49:33.21 | 6:00.66 | 222996 | 250061
14 | 55:34.12 | 7:21.38 | 250062 | 283174
15 | 65:27.50 | 9:04.55 | 294575 | 335429

Трек 1

Имя файла D:\EAC\Fiddler’s Green\Fiddler’s Green – 2002 – Folk Raider\01 Bonnie Ship The Diamond.wav

Длина предзазора 0:00:02.00

Пиковый уровень 98.8 %
Качество трека 99.9 %
CRC теста 5582A43E
CRC копии 5582A43E
Точное извлечение (достоверность 8) [9A7C8DBC]
Копирование… OK

Трек 2

Имя файла D:\EAC\Fiddler’s Green\Fiddler’s Green – 2002 – Folk Raider\02 Don’t Stand So.wav

Длина предзазора 0:00:01.48

Пиковый уровень 98.8 %
Качество трека 100.0 %
CRC теста 52A80C81
CRC копии 52A80C81
Точное извлечение (достоверность 8) [78180F3B]
Копирование… OK

Трек 3

Имя файла D:\EAC\Fiddler’s Green\Fiddler’s Green – 2002 – Folk Raider\03 Weaver’s Reel.wav

Длина предзазора 0:00:00.84

Пиковый уровень 98.8 %
Качество трека 100.0 %
CRC теста F8D42730
CRC копии F8D42730
Точное извлечение (достоверность 8) [D971D3FB]
Копирование… OK

Трек 4

Имя файла D:\EAC\Fiddler’s Green\Fiddler’s Green – 2002 – Folk Raider\04 Folk Raider.wav

Пиковый уровень 98.8 %
Качество трека 100.0 %
CRC теста F53FA90F
CRC копии F53FA90F
Точное извлечение (достоверность 8) [CBD8B238]
Копирование… OK

Трек 5

Имя файла D:\EAC\Fiddler’s Green\Fiddler’s Green – 2002 – Folk Raider\05 Out Of The Rain.wav

Длина предзазора 0:00:02.00

Пиковый уровень 98.8 %
Качество трека 99.9 %
CRC теста 0F1FF6FE
CRC копии 0F1FF6FE
Точное извлечение (достоверность 7) [CC8AE1DD]
Копирование… OK

Трек 6

Имя файла D:\EAC\Fiddler’s Green\Fiddler’s Green – 2002 – Folk Raider\06 The Crawl.wav

Длина предзазора 0:00:02.00

Пиковый уровень 98.8 %
Качество трека 100.0 %
CRC теста 5623CFAD
CRC копии 5623CFAD
Точное извлечение (достоверность 8) [39DD890F]
Копирование… OK

Трек 7

Имя файла D:\EAC\Fiddler’s Green\Fiddler’s Green – 2002 – Folk Raider\07 Picard Jigs.wav

Длина предзазора 0:00:02.00

Пиковый уровень 98.8 %
Качество трека 99.9 %
CRC теста 45874664
CRC копии 45874664
Точное извлечение (достоверность 8) [62C779B2]
Копирование… OK

Трек 8

Имя файла D:\EAC\Fiddler’s Green\Fiddler’s Green – 2002 – Folk Raider\08 Whiskey In The Spa.wav

Длина предзазора 0:00:02.00

Пиковый уровень 98.8 %
Качество трека 99.9 %
CRC теста CED901F7
CRC копии CED901F7
Точное извлечение (достоверность 7) [96621D92]
Копирование… OK

Трек 9

Имя файла D:\EAC\Fiddler’s Green\Fiddler’s Green – 2002 – Folk Raider\09 My Baby’s Gone.wav

Длина предзазора 0:00:00.98

Пиковый уровень 98.8 %
Качество трека 100.0 %
CRC теста BAA5D6BC
CRC копии BAA5D6BC
Точное извлечение (достоверность 7) [0DDB273F]
Копирование… OK

Трек 10

Имя файла D:\EAC\Fiddler’s Green\Fiddler’s Green – 2002 – Folk Raider\10 Girls Along The Road.wav

Длина предзазора 0:00:02.00

Пиковый уровень 98.8 %
Качество трека 99.9 %
CRC теста B61E9EC3
CRC копии B61E9EC3
Точное извлечение (достоверность 8) [D3C59290]
Копирование… OK

Трек 11

Имя файла D:\EAC\Fiddler’s Green\Fiddler’s Green – 2002 – Folk Raider\11 Out Of Your Life.wav

Длина предзазора 0:00:03.01

Пиковый уровень 98.8 %
Качество трека 99.9 %
CRC теста 8CAB89DB
CRC копии 8CAB89DB
Точное извлечение (достоверность 7) [6669FB51]
Копирование… OK

Трек 12

Имя файла D:\EAC\Fiddler’s Green\Fiddler’s Green – 2002 – Folk Raider\12 Take Me To.wav

Пиковый уровень 98.8 %
Качество трека 99.9 %
CRC теста 7E6BF6F2
CRC копии 7E6BF6F2
Точное извлечение (достоверность 8) [9E246A76]
Копирование… OK

Трек 13

Имя файла D:\EAC\Fiddler’s Green\Fiddler’s Green – 2002 – Folk Raider\13 Splendid Isolation.wav

Пиковый уровень 98.8 %
Качество трека 100.0 %
CRC теста 8D793C95
CRC копии 8D793C95
Точное извлечение (достоверность 8) [22BD121A]
Копирование… OK

Трек 14

Имя файла D:\EAC\Fiddler’s Green\Fiddler’s Green – 2002 – Folk Raider\14 Tangerine.wav

Пиковый уровень 98.8 %
Качество трека 99.9 %
CRC теста 7785A7C6
CRC копии 7785A7C6
Точное извлечение (достоверность 7) [00E06791]
Копирование… OK

Все треки извлечены точно

Ошибок не произошло

Конец отчёта

REM GENRE Speedfolk
REM DATE 2002
REM DISCID DD11780F
REM COMMENT “ExactAudioCopy v0.99pb5”
PERFORMER “Fiddler’s Green”
TITLE “Folk Raider”
FILE “01 Bonnie Ship The Diamond.wav” WAVE
TRACK 01 AUDIO
TITLE “Bonnie Ship The Diamond”
PERFORMER “Fiddler’s Green”
INDEX 01 00:00:00
TRACK 02 AUDIO
TITLE “Don’t Stand So”
PERFORMER “Fiddler’s Green”
INDEX 00 03:34:02
FILE “02 Don’t Stand So.wav” WAVE
INDEX 01 00:00:00
TRACK 03 AUDIO
TITLE “Weaver’s Reel”
PERFORMER “Fiddler’s Green”
INDEX 00 03:19:27
FILE “03 Weaver’s Reel.wav” WAVE
INDEX 01 00:00:00
FILE “04 Folk Raider.wav” WAVE
TRACK 04 AUDIO
TITLE “Folk Raider”
PERFORMER “Fiddler’s Green”
INDEX 01 00:00:00
TRACK 05 AUDIO
TITLE “Out Of The Rain”
PERFORMER “Fiddler’s Green”
INDEX 00 03:37:25
FILE “05 Out Of The Rain.wav” WAVE
INDEX 01 00:00:00
TRACK 06 AUDIO
TITLE “The Crawl”
PERFORMER “Fiddler’s Green”
INDEX 00 03:49:69
FILE “06 The Crawl.wav” WAVE
INDEX 01 00:00:00
TRACK 07 AUDIO
TITLE “Picard Jigs”
PERFORMER “Fiddler’s Green”
INDEX 00 03:46:63
FILE “07 Picard Jigs.wav” WAVE
INDEX 01 00:00:00
TRACK 08 AUDIO
TITLE “Whiskey In The Spa”
PERFORMER “Fiddler’s Green”
INDEX 00 06:27:07
FILE “08 Whiskey In The Spa.wav” WAVE
INDEX 01 00:00:00
TRACK 09 AUDIO
TITLE “My Baby’s Gone”
PERFORMER “Fiddler’s Green”
INDEX 00 04:31:33
FILE “09 My Baby’s Gone.wav” WAVE
INDEX 01 00:00:00
TRACK 10 AUDIO
TITLE “Girls Along The Road”
PERFORMER “Fiddler’s Green”
INDEX 00 03:06:11
FILE “10 Girls Along The Road.wav” WAVE
INDEX 01 00:00:00
TRACK 11 AUDIO
TITLE “Out Of Your Life”
PERFORMER “Fiddler’s Green”
INDEX 00 03:35:74
FILE “11 Out Of Your Life.wav” WAVE
INDEX 01 00:00:00
FILE “12 Take Me To.wav” WAVE
TRACK 12 AUDIO
TITLE “Take Me To”
PERFORMER “Fiddler’s Green”
INDEX 01 00:00:00
FILE “13 Splendid Isolation.wav” WAVE
TRACK 13 AUDIO
TITLE “Splendid Isolation”
PERFORMER “Fiddler’s Green”
INDEX 01 00:00:00
FILE “14 Tangerine.wav” WAVE
TRACK 14 AUDIO
TITLE “Tangerine”
PERFORMER “Fiddler’s Green”
INDEX 01 00:00:00


Leave a Reply

Your email address will not be published. Required fields are marked *

This site uses Akismet to reduce spam. Learn how your comment data is processed.