Fiddler’s Green – Fiddler’s Green




No Cover available

Artist: Fiddler’s Green
Year: 1992
Genre: Rock
Notes: Discogs
Add. Notes:
Watch Songs on: YouTube
Cover incl.: Yes
Encoder: FLAC
Bitrate: ~900 kBit/s (44.1 kHz/16 Bit/s)
Log & Cue incl.: Yes
Size: 785,96 MB
Password: “slam” (without ” “)


All Downloads/Hosters are compatible

Download 1
KatFile.com
Turbobit.net
FileFactory.com
Rapidgator.net
Download 2
KatFile.com
Turbobit.net
FileFactory.com
Rapidgator.net

Tracklist:

Live Tracks
1 - Fiddler's Green - 3:26
2 - The Creel - 2:06
3 - Rocky Road To Dublin - 4:09
4 - Days Of Yore - 5:36
5 - Don't Turn Away - 3:08
6 - Don't Come Again - 4:31
7 - Raggle Taggle Gypsy - 4:55
8 - Blarney Roses - 3:49
9 - O'Mahoney's Frolics 7 Battle Of Aughrim / Jack 
Keane's Reel - 6:53
10 - Summer Song - 3:56
Studio Tracks
11 - Midnight Rambler - 3:55
12 - Shakin' An Egg Jig - 2:54
13 - Midnight Sun - 2:15
14 - Secret Fire - 3:34
15 - Annabel Lee - 3:42
16 - Out Of Control - 5:46

EAC-Log, CUE-Sheed & NFO:

Click to open spoiler
Exact Audio Copy V0.99 prebeta 5 from 4. May 2009

Отчёт EAC об извлечении, выполненном 27. августа 2011, 21:05

Fiddler’s Green / Fiddler’s Green

Дисковод: TEAC DW-552G Adapter: 0 ID: 0

Режим чтения : Достоверность
Использование точного потока : Да
Отключение кэша аудио : Да
Использование указателей C2 : Нет

Коррекция смещения при чтении : 6
Способность читать области Lead-in и Lead-out : Нет
Заполнение пропущенных сэмплов тишиной : Да
Удаление блоков с тишиной в начале и конце : Нет
При вычислениях CRC использовались нулевые сэмплы : Да
Интерфейс : Встроенный Win32-интерфейс для Win NT/2000
Обработка зазоров : Добавлено к предыдущему треку

Выходной формат : Пользовательский кодировщик
Выбранный битрейт : 128 kBit/s
Качество : Высокий
Добавление ID3-тэга : Нет
Утилита сжатия : C:\Program Files\Exact Audio Copy\FLAC\FLAC.EXE
Дополнительные параметры : -8 -V -T “ARTIST=%a” -T “TITLE=%t” -T “ALBUM=%g” -T “DATE=%y” -T “TRACKNUMBER=%n” -T “GENRE=%m” -T “COMMENT=EAC FLAC -8” %s

TOC извлечённого CD

Трек | Старт | Длительность | Начальный сектор | Конечный сектор
———————————————————————
1 | 0:00.00 | 3:27.03 | 0 | 15527
2 | 3:27.03 | 2:06.20 | 15528 | 24997
3 | 5:33.23 | 4:08.70 | 24998 | 43667
4 | 9:42.18 | 5:36.10 | 43668 | 68877
5 | 15:18.28 | 3:08.22 | 68878 | 82999
6 | 18:26.50 | 4:30.63 | 83000 | 103312
7 | 22:57.38 | 4:54.42 | 103313 | 125404
8 | 27:52.05 | 3:49.35 | 125405 | 142614
9 | 31:41.40 | 6:53.00 | 142615 | 173589
10 | 38:34.40 | 3:57.53 | 173590 | 191417
11 | 42:32.18 | 3:54.55 | 191418 | 209022
12 | 46:26.73 | 2:53.52 | 209023 | 222049
13 | 49:20.50 | 2:14.73 | 222050 | 232172
14 | 51:35.48 | 3:33.60 | 232173 | 248207
15 | 55:09.33 | 5:45.25 | 248208 | 274107
16 | 60:54.58 | 3:40.60 | 274108 | 290667

Трек 1

Имя файла D:\EAC\Fiddler’s Green\Fiddler’s Green – 1992 – Fiddler’s Green\01 Fiddler’s Green.wav

Длина предзазора 0:00:02.00

Пиковый уровень 100.0 %
Качество трека 99.9 %
CRC теста A241BF3E
CRC копии A241BF3E
Точное извлечение (достоверность 6) [B332E2BE]
Копирование… OK

Трек 2

Имя файла D:\EAC\Fiddler’s Green\Fiddler’s Green – 1992 – Fiddler’s Green\02 The Creel.wav

Пиковый уровень 100.0 %
Качество трека 100.0 %
CRC теста F9722A36
CRC копии F9722A36
Точное извлечение (достоверность 6) [49EC2A8D]
Копирование… OK

Трек 3

Имя файла D:\EAC\Fiddler’s Green\Fiddler’s Green – 1992 – Fiddler’s Green\03 Rocky Road To Dublin.wav

Пиковый уровень 100.0 %
Качество трека 100.0 %
CRC теста CECBB17E
CRC копии CECBB17E
Точное извлечение (достоверность 6) [6E22057D]
Копирование… OK

Трек 4

Имя файла D:\EAC\Fiddler’s Green\Fiddler’s Green – 1992 – Fiddler’s Green\04 Days Of Yore.wav

Пиковый уровень 100.0 %
Качество трека 99.9 %
CRC теста D89EF641
CRC копии D89EF641
Точное извлечение (достоверность 6) [BD1C2223]
Копирование… OK

Трек 5

Имя файла D:\EAC\Fiddler’s Green\Fiddler’s Green – 1992 – Fiddler’s Green\05 Don’t Turn Away.wav

Пиковый уровень 100.0 %
Качество трека 99.8 %
CRC теста D8D4A6EC
CRC копии D8D4A6EC
Точное извлечение (достоверность 6) [E01E8C75]
Копирование… OK

Трек 6

Имя файла D:\EAC\Fiddler’s Green\Fiddler’s Green – 1992 – Fiddler’s Green\06 Don’t Come Again.wav

Пиковый уровень 100.0 %
Качество трека 99.8 %
CRC теста 46F086CA
CRC копии 46F086CA
Точное извлечение (достоверность 6) [F2B3A1C3]
Копирование… OK

Трек 7

Имя файла D:\EAC\Fiddler’s Green\Fiddler’s Green – 1992 – Fiddler’s Green\07 Raggle Taggle Gypsy.wav

Пиковый уровень 100.0 %
Качество трека 99.8 %
CRC теста 56DCD07E
CRC копии 56DCD07E
Точное извлечение (достоверность 6) [FBF5D0B3]
Копирование… OK

Трек 8

Имя файла D:\EAC\Fiddler’s Green\Fiddler’s Green – 1992 – Fiddler’s Green\08 Blarney Roses.wav

Пиковый уровень 100.0 %
Качество трека 99.9 %
CRC теста EB94EE7D
CRC копии EB94EE7D
Точное извлечение (достоверность 6) [04FB87BE]
Копирование… OK

Трек 9

Имя файла D:\EAC\Fiddler’s Green\Fiddler’s Green – 1992 – Fiddler’s Green\09 O’Mahoney’s Frolics – Battle Of Aughrim – Jack Keane’s Reel.wav

Пиковый уровень 100.0 %
Качество трека 99.9 %
CRC теста 2309340A
CRC копии 2309340A
Точное извлечение (достоверность 6) [D1965486]
Копирование… OK

Трек 10

Имя файла D:\EAC\Fiddler’s Green\Fiddler’s Green – 1992 – Fiddler’s Green\10 Summer Song.wav

Пиковый уровень 100.0 %
Качество трека 99.9 %
CRC теста 2DF9A10F
CRC копии 2DF9A10F
Точное извлечение (достоверность 6) [A437EB9E]
Копирование… OK

Трек 11

Имя файла D:\EAC\Fiddler’s Green\Fiddler’s Green – 1992 – Fiddler’s Green\11 Midnight Rambler.wav

Пиковый уровень 100.0 %
Качество трека 99.9 %
CRC теста D973714E
CRC копии D973714E
Точное извлечение (достоверность 6) [8BDF8A82]
Копирование… OK

Трек 12

Имя файла D:\EAC\Fiddler’s Green\Fiddler’s Green – 1992 – Fiddler’s Green\12 Shakin’ An Egg Jig.wav

Пиковый уровень 100.0 %
Качество трека 99.9 %
CRC теста 39641D95
CRC копии 39641D95
Точное извлечение (достоверность 6) [4AE58574]
Копирование… OK

Трек 13

Имя файла D:\EAC\Fiddler’s Green\Fiddler’s Green – 1992 – Fiddler’s Green\13 Midnight Sun.wav

Пиковый уровень 100.0 %
Качество трека 99.9 %
CRC теста F6C30307
CRC копии F6C30307
Точное извлечение (достоверность 6) [CD938F43]
Копирование… OK

Трек 14

Имя файла D:\EAC\Fiddler’s Green\Fiddler’s Green – 1992 – Fiddler’s Green\14 Secret Fire.wav

Пиковый уровень 100.0 %
Качество трека 99.8 %
CRC теста 526EA70F
CRC копии 526EA70F
Точное извлечение (достоверность 6) [B550BD52]
Копирование… OK

Трек 15

Имя файла D:\EAC\Fiddler’s Green\Fiddler’s Green – 1992 – Fiddler’s Green\15 Annabel Lee.wav

Пиковый уровень 100.0 %
Качество трека 99.9 %
CRC теста 95055775
CRC копии 95055775
Точное извлечение (достоверность 6) [F46B5842]
Копирование… OK

Трек 16

Имя файла D:\EAC\Fiddler’s Green\Fiddler’s Green – 1992 – Fiddler’s Green\16 Out Of Control.wav

Пиковый уровень 100.0 %
Качество трека 100.0 %
CRC теста 8E532D92
CRC копии 8E532D92
Точное извлечение (достоверность 6) [F5FFF700]
Копирование… OK

Все треки извлечены точно

Ошибок не произошло

Конец отчёта

REM GENRE Speedfolk
REM DATE 1992
REM DISCID E80F2310
REM COMMENT “ExactAudioCopy v0.99pb5”
PERFORMER “Fiddler’s Green”
TITLE “Fiddler’s Green”
FILE “01 Fiddler’s Green.wav” WAVE
TRACK 01 AUDIO
TITLE “Fiddler’s Green”
PERFORMER “Fiddler’s Green”
INDEX 01 00:00:00
FILE “02 The Creel.wav” WAVE
TRACK 02 AUDIO
TITLE “The Creel”
PERFORMER “Fiddler’s Green”
INDEX 01 00:00:00
FILE “03 Rocky Road To Dublin.wav” WAVE
TRACK 03 AUDIO
TITLE “Rocky Road To Dublin”
PERFORMER “Fiddler’s Green”
INDEX 01 00:00:00
FILE “04 Days Of Yore.wav” WAVE
TRACK 04 AUDIO
TITLE “Days Of Yore”
PERFORMER “Fiddler’s Green”
INDEX 01 00:00:00
FILE “05 Don’t Turn Away.wav” WAVE
TRACK 05 AUDIO
TITLE “Don’t Turn Away”
PERFORMER “Fiddler’s Green”
INDEX 01 00:00:00
FILE “06 Don’t Come Again.wav” WAVE
TRACK 06 AUDIO
TITLE “Don’t Come Again”
PERFORMER “Fiddler’s Green”
INDEX 01 00:00:00
FILE “07 Raggle Taggle Gypsy.wav” WAVE
TRACK 07 AUDIO
TITLE “Raggle Taggle Gypsy”
PERFORMER “Fiddler’s Green”
INDEX 01 00:00:00
FILE “08 Blarney Roses.wav” WAVE
TRACK 08 AUDIO
TITLE “Blarney Roses”
PERFORMER “Fiddler’s Green”
INDEX 01 00:00:00
FILE “09 O’Mahoney’s Frolics – Battle Of Aughrim – Jack Keane’s Reel.wav” WAVE
TRACK 09 AUDIO
TITLE “O’Mahoney’s Frolics – Battle Of Aughrim – Jack Keane’s Reel”
PERFORMER “Fiddler’s Green”
INDEX 01 00:00:00
FILE “10 Summer Song.wav” WAVE
TRACK 10 AUDIO
TITLE “Summer Song”
PERFORMER “Fiddler’s Green”
INDEX 01 00:00:00
FILE “11 Midnight Rambler.wav” WAVE
TRACK 11 AUDIO
TITLE “Midnight Rambler”
PERFORMER “Fiddler’s Green”
INDEX 01 00:00:00
FILE “12 Shakin’ An Egg Jig.wav” WAVE
TRACK 12 AUDIO
TITLE “Shakin’ An Egg Jig”
PERFORMER “Fiddler’s Green”
INDEX 01 00:00:00
FILE “13 Midnight Sun.wav” WAVE
TRACK 13 AUDIO
TITLE “Midnight Sun”
PERFORMER “Fiddler’s Green”
INDEX 01 00:00:00
FILE “14 Secret Fire.wav” WAVE
TRACK 14 AUDIO
TITLE “Secret Fire”
PERFORMER “Fiddler’s Green”
INDEX 01 00:00:00
FILE “15 Annabel Lee.wav” WAVE
TRACK 15 AUDIO
TITLE “Annabel Lee”
PERFORMER “Fiddler’s Green”
INDEX 01 00:00:00
FILE “16 Out Of Control.wav” WAVE
TRACK 16 AUDIO
TITLE “Out Of Control”
PERFORMER “Fiddler’s Green”
INDEX 01 00:00:00


Leave a Reply

Your email address will not be published. Required fields are marked *

This site uses Akismet to reduce spam. Learn how your comment data is processed.