Fiddler’s Green – Black Sheep




No Cover available

Artist: Fiddler’s Green
Year: 1993
Genre: Rock
Notes: Discogs
Add. Notes:
Watch Songs on: YouTube
Cover incl.: Yes
Encoder: FLAC
Bitrate: ~900 kBit/s (44.1 kHz/16 Bit/s)
Log & Cue incl.: Yes
Size: 819,77 MB
Password: “slam” (without ” “)


All Downloads/Hosters are compatible

Download 1
KatFile.com
Turbobit.net
FileFactory.com
Rapidgator.net
Download 2
KatFile.com
Turbobit.net
FileFactory.com
Rapidgator.net

Tracklist:

01 - Too Drunk
02 - Straight Ahead
03 - Black Sheep Rag
04 - I Won't Follow You Up To Carlow
05 - Hark
06 - As I Roved Out
07 - The Blarney F_#O Jig-Pack_ Caliop
08 - Irish Airman
09 - London
10 - Stop
11 - Connemara
12 - The Jolly Beggar
13 - Fiddler's Green

EAC-Log, CUE-Sheed & NFO:

Click to open spoiler
Exact Audio Copy V0.99 prebeta 5 from 4. May 2009

Отчёт EAC об извлечении, выполненном 27. августа 2011, 22:25

Fiddler’s Green / Black Sheep

Дисковод: TEAC DW-552G Adapter: 0 ID: 0

Режим чтения : Достоверность
Использование точного потока : Да
Отключение кэша аудио : Да
Использование указателей C2 : Нет

Коррекция смещения при чтении : 6
Способность читать области Lead-in и Lead-out : Нет
Заполнение пропущенных сэмплов тишиной : Да
Удаление блоков с тишиной в начале и конце : Нет
При вычислениях CRC использовались нулевые сэмплы : Да
Интерфейс : Встроенный Win32-интерфейс для Win NT/2000
Обработка зазоров : Добавлено к предыдущему треку

Выходной формат : Пользовательский кодировщик
Выбранный битрейт : 128 kBit/s
Качество : Высокий
Добавление ID3-тэга : Нет
Утилита сжатия : C:\Program Files\Exact Audio Copy\FLAC\FLAC.EXE
Дополнительные параметры : -8 -V -T “ARTIST=%a” -T “TITLE=%t” -T “ALBUM=%g” -T “DATE=%y” -T “TRACKNUMBER=%n” -T “GENRE=%m” -T “COMMENT=EAC FLAC -8” %s

TOC извлечённого CD

Трек | Старт | Длительность | Начальный сектор | Конечный сектор
———————————————————————
1 | 0:00.00 | 4:47.45 | 0 | 21569
2 | 4:47.45 | 4:49.00 | 21570 | 43244
3 | 9:36.45 | 4:19.15 | 43245 | 62684
4 | 13:55.60 | 4:20.65 | 62685 | 82249
5 | 18:16.50 | 3:10.45 | 82250 | 96544
6 | 21:27.20 | 4:35.48 | 96545 | 117217
7 | 26:02.68 | 8:02.17 | 117218 | 153384
8 | 34:05.10 | 3:08.53 | 153385 | 167537
9 | 37:13.63 | 3:42.00 | 167538 | 184187
10 | 40:55.63 | 3:51.50 | 184188 | 201562
11 | 44:47.38 | 3:42.30 | 201563 | 218242
12 | 48:29.68 | 3:16.32 | 218243 | 232974
13 | 51:46.25 | 11:16.38 | 232975 | 283712

Трек 1

Имя файла D:\EAC\Fiddler’s Green\Fiddler’s Green – 1993 – Black Sheep\01 Too Drunk.wav

Длина предзазора 0:00:02.00

Пиковый уровень 97.6 %
Качество трека 100.0 %
CRC теста C9CD2121
CRC копии C9CD2121
Точное извлечение (достоверность 2) [483999FB]
Копирование… OK

Трек 2

Имя файла D:\EAC\Fiddler’s Green\Fiddler’s Green – 1993 – Black Sheep\02 Straight Ahead.wav

Длина предзазора 0:00:02.96

Пиковый уровень 97.6 %
Качество трека 99.9 %
CRC теста 1ACF6461
CRC копии 1ACF6461
Точное извлечение (достоверность 2) [8A817BF7]
Копирование… OK

Трек 3

Имя файла D:\EAC\Fiddler’s Green\Fiddler’s Green – 1993 – Black Sheep\03 Black Sheep Rag.wav

Длина предзазора 0:00:03.09

Пиковый уровень 97.6 %
Качество трека 100.0 %
CRC теста AE6905C9
CRC копии AE6905C9
Точное извлечение (достоверность 2) [DEF6924D]
Копирование… OK

Трек 4

Имя файла D:\EAC\Fiddler’s Green\Fiddler’s Green – 1993 – Black Sheep\04 I Won’t Follow You Up To Carlow.wav

Длина предзазора 0:00:04.76

Пиковый уровень 97.6 %
Качество трека 99.8 %
CRC теста 39961650
CRC копии 39961650
Точное извлечение (достоверность 2) [62F942CF]
Копирование… OK

Трек 5

Имя файла D:\EAC\Fiddler’s Green\Fiddler’s Green – 1993 – Black Sheep\05 Hark.wav

Длина предзазора 0:00:03.33

Пиковый уровень 97.6 %
Качество трека 99.9 %
CRC теста 18B03734
CRC копии 18B03734
Точное извлечение (достоверность 2) [C5E8F29C]
Копирование… OK

Трек 6

Имя файла D:\EAC\Fiddler’s Green\Fiddler’s Green – 1993 – Black Sheep\06 As I Roved Out.wav

Длина предзазора 0:00:02.66

Пиковый уровень 97.6 %
Качество трека 100.0 %
CRC теста 14677134
CRC копии 14677134
Точное извлечение (достоверность 2) [6199B626]
Копирование… OK

Трек 7

Имя файла D:\EAC\Fiddler’s Green\Fiddler’s Green – 1993 – Black Sheep\07 The Blarney Fx#x Jig-Pack- Caliope House,Keep It Up,Sleepy Maggie.wav

Длина предзазора 0:00:02.80

Пиковый уровень 97.6 %
Качество трека 99.9 %
CRC теста 1A27BB37
CRC копии 1A27BB37
Точное извлечение (достоверность 2) [EEC38B3A]
Копирование… OK

Трек 8

Имя файла D:\EAC\Fiddler’s Green\Fiddler’s Green – 1993 – Black Sheep\08 Irish Airman.wav

Длина предзазора 0:00:02.96

Пиковый уровень 83.4 %
Качество трека 100.0 %
CRC теста 6F52232C
CRC копии 6F52232C
Точное извлечение (достоверность 2) [1618E90B]
Копирование… OK

Трек 9

Имя файла D:\EAC\Fiddler’s Green\Fiddler’s Green – 1993 – Black Sheep\09 London.wav

Длина предзазора 0:00:03.00

Пиковый уровень 72.2 %
Качество трека 99.9 %
CRC теста 622574C8
CRC копии 622574C8
Точное извлечение (достоверность 2) [18564668]
Копирование… OK

Трек 10

Имя файла D:\EAC\Fiddler’s Green\Fiddler’s Green – 1993 – Black Sheep\10 Stop.wav

Длина предзазора 0:00:03.06

Пиковый уровень 97.6 %
Качество трека 100.0 %
CRC теста 73651314
CRC копии 73651314
Точное извлечение (достоверность 2) [C7E89FCE]
Копирование… OK

Трек 11

Имя файла D:\EAC\Fiddler’s Green\Fiddler’s Green – 1993 – Black Sheep\11 Connemara.wav

Длина предзазора 0:00:03.10

Пиковый уровень 97.6 %
Качество трека 99.8 %
CRC теста 5A5A3C98
CRC копии 5A5A3C98
Точное извлечение (достоверность 2) [672BC1B8]
Копирование… OK

Трек 12

Имя файла D:\EAC\Fiddler’s Green\Fiddler’s Green – 1993 – Black Sheep\12 The Jolly Beggar.wav

Длина предзазора 0:00:03.06

Пиковый уровень 97.6 %
Качество трека 100.0 %
CRC теста EB84F7E7
CRC копии EB84F7E7
Точное извлечение (достоверность 2) [6F7931EE]
Копирование… OK

Трек 13

Имя файла D:\EAC\Fiddler’s Green\Fiddler’s Green – 1993 – Black Sheep\13 Fiddler’s Green (There’s More Than One).wav

Длина предзазора 0:00:03.20

Пиковый уровень 97.6 %
Качество трека 99.9 %
CRC теста 84997098
CRC копии 84997098
Точное извлечение (достоверность 2) [BB9ED20C]
Копирование… OK

Все треки извлечены точно

Ошибок не произошло

Конец отчёта

REM GENRE Speedfolk
REM DATE 1993
REM DISCID CE0EC60D
REM COMMENT “ExactAudioCopy v0.99pb5”
PERFORMER “Fiddler’s Green”
TITLE “Black Sheep”
FILE “01 Too Drunk.wav” WAVE
TRACK 01 AUDIO
TITLE “Too Drunk”
PERFORMER “Fiddler’s Green”
INDEX 01 00:00:00
TRACK 02 AUDIO
TITLE “Straight Ahead”
PERFORMER “Fiddler’s Green”
INDEX 00 04:44:48
FILE “02 Straight Ahead.wav” WAVE
INDEX 01 00:00:00
TRACK 03 AUDIO
TITLE “Black Sheep Rag”
PERFORMER “Fiddler’s Green”
INDEX 00 04:45:68
FILE “03 Black Sheep Rag.wav” WAVE
INDEX 01 00:00:00
TRACK 04 AUDIO
TITLE “I Won’t Follow You Up To Carlow”
PERFORMER “Fiddler’s Green”
INDEX 00 04:14:33
FILE “04 I Won’t Follow You Up To Carlow.wav” WAVE
INDEX 01 00:00:00
TRACK 05 AUDIO
TITLE “Hark”
PERFORMER “Fiddler’s Green”
INDEX 00 04:17:40
FILE “05 Hark.wav” WAVE
INDEX 01 00:00:00
TRACK 06 AUDIO
TITLE “As I Roved Out”
PERFORMER “Fiddler’s Green”
INDEX 00 03:07:70
FILE “06 As I Roved Out.wav” WAVE
INDEX 01 00:00:00
TRACK 07 AUDIO
TITLE “The Blarney F*#* Jig-Pack: Caliope House/Keep It Up/Sleepy Maggie”
PERFORMER “Fiddler’s Green”
INDEX 00 04:32:63
FILE “07 The Blarney Fx#x Jig-Pack- Caliope House,Keep It Up,Sleepy Maggie.wav” WAVE
INDEX 01 00:00:00
TRACK 08 AUDIO
TITLE “Irish Airman”
PERFORMER “Fiddler’s Green”
INDEX 00 07:59:20
FILE “08 Irish Airman.wav” WAVE
INDEX 01 00:00:00
TRACK 09 AUDIO
TITLE “London”
PERFORMER “Fiddler’s Green”
INDEX 00 03:05:53
FILE “09 London.wav” WAVE
INDEX 01 00:00:00
TRACK 10 AUDIO
TITLE “Stop”
PERFORMER “Fiddler’s Green”
INDEX 00 03:38:70
FILE “10 Stop.wav” WAVE
INDEX 01 00:00:00
TRACK 11 AUDIO
TITLE “Connemara”
PERFORMER “Fiddler’s Green”
INDEX 00 03:48:42
FILE “11 Connemara.wav” WAVE
INDEX 01 00:00:00
TRACK 12 AUDIO
TITLE “The Jolly Beggar”
PERFORMER “Fiddler’s Green”
INDEX 00 03:39:25
FILE “12 The Jolly Beggar.wav” WAVE
INDEX 01 00:00:00
TRACK 13 AUDIO
TITLE “Fiddler’s Green (There’s More Than One)”
PERFORMER “Fiddler’s Green”
INDEX 00 03:13:17
FILE “13 Fiddler’s Green (There’s More Than One).wav” WAVE
INDEX 01 00:00:00


Leave a Reply

Your email address will not be published. Required fields are marked *

This site uses Akismet to reduce spam. Learn how your comment data is processed.