Fiddler’s Green – Another Sky




Artist: Fiddler’s Green
Year: 2000
Genre: Rock
Add. Notes:
Cover incl.: No
Encoder: FLAC
Bitrate: ~900 kBit/s (44.1 kHz/16 Bit/s)
Log & Cue incl.: Yes
Size: 418 MB
Password: “slam” (without ” “)


All Downloads/Hosters are compatible

Download 1
Turbobit.net
Rapidgator.net
UploadEver.com
KatFile.com
UsersDrive.com
Download 2
Turbobit.net
Rapidgator.net
UploadEver.com
KatFile.com
UsersDrive.com
Download 3
Turbobit.net
Rapidgator.net
UploadEver.com
KatFile.com
UsersDrive.com

Tracklist:

1 - No Buts About It - 2:56
2 - Queen Of Argyll - 4:21
3 - Anothe Sky - 4:30
4 - Give Me The Time - 4:57
5 - Storm Inside - 2:19
6 - Donkey Riding - 2:09
7 - My Way - 5:10
8 - Ramblin Rover - 3:23
9 - Out Of The Darkness - 4:52
10 - Knock On Wood - 2:37
11 - Fall For U - 4:48
12 - No Need - 3:46
13 - The Athole 
Highlanders/Highroad To Linton - 
4:12
14 - Tullochgorum - 3:46
15 - Burn My Fantasies - 5:10

EAC-Log, CUE-Sheed & NFO:

Click to open spoiler
Exact Audio Copy V0.99 prebeta 5 from 4. May 2009

Отчёт EAC об извлечении, выполненном 28. августа 2011, 10:59

Fiddler’s Green / Another Sky

Дисковод: TEAC DW-552G Adapter: 0 ID: 0

Режим чтения : Достоверность
Использование точного потока : Да
Отключение кэша аудио : Да
Использование указателей C2 : Нет

Коррекция смещения при чтении : 6
Способность читать области Lead-in и Lead-out : Нет
Заполнение пропущенных сэмплов тишиной : Да
Удаление блоков с тишиной в начале и конце : Нет
При вычислениях CRC использовались нулевые сэмплы : Да
Интерфейс : Встроенный Win32-интерфейс для Win NT/2000
Обработка зазоров : Добавлено к предыдущему треку

Выходной формат : Пользовательский кодировщик
Выбранный битрейт : 128 kBit/s
Качество : Высокий
Добавление ID3-тэга : Нет
Утилита сжатия : C:\Program Files\Exact Audio Copy\FLAC\FLAC.EXE
Дополнительные параметры : -8 -V -T “ARTIST=%a” -T “TITLE=%t” -T “ALBUM=%g” -T “DATE=%y” -T “TRACKNUMBER=%n” -T “GENRE=%m” -T “COMMENT=EAC FLAC -8” %s

TOC извлечённого CD

Трек | Старт | Длительность | Начальный сектор | Конечный сектор
———————————————————————
1 | 0:00.00 | 2:57.00 | 0 | 13274
2 | 2:57.00 | 4:21.38 | 13275 | 32887
3 | 7:18.38 | 4:30.26 | 32888 | 53163
4 | 11:48.64 | 4:01.27 | 53164 | 71265
5 | 15:50.16 | 2:20.02 | 71266 | 81767
6 | 18:10.18 | 2:09.22 | 81768 | 91464
7 | 20:19.40 | 5:10.30 | 91465 | 114744
8 | 25:29.70 | 3:25.06 | 114745 | 130125
9 | 28:55.01 | 4:53.08 | 130126 | 152108
10 | 33:48.09 | 2:38.53 | 152109 | 164011
11 | 36:26.62 | 4:49.19 | 164012 | 185705
12 | 41:16.06 | 3:46.46 | 185706 | 202701
13 | 45:02.52 | 4:13.31 | 202702 | 221707
14 | 49:16.08 | 3:46.64 | 221708 | 238721
15 | 53:02.72 | 5:10.19 | 238722 | 261990

Трек 1

Имя файла D:\EAC\Fiddler’s Green\Fiddler’s Green – 2000 – Another Sky\01 No Buts About It.wav

Длина предзазора 0:00:02.00

Пиковый уровень 98.8 %
Качество трека 99.9 %
CRC теста 862749B4
CRC копии 862749B4
Точное извлечение (достоверность 8) [9B6CAD28]
Копирование… OK

Трек 2

Имя файла D:\EAC\Fiddler’s Green\Fiddler’s Green – 2000 – Another Sky\02 Queen Of Argyll.wav

Пиковый уровень 98.8 %
Качество трека 99.9 %
CRC теста 0926E49D
CRC копии 0926E49D
Точное извлечение (достоверность 8) [F3B0A2A5]
Копирование… OK

Трек 3

Имя файла D:\EAC\Fiddler’s Green\Fiddler’s Green – 2000 – Another Sky\03 Another Sky.wav

Пиковый уровень 98.8 %
Качество трека 100.0 %
CRC теста 4FE1C59B
CRC копии 4FE1C59B
Точное извлечение (достоверность 8) [D5F278B6]
Копирование… OK

Трек 4

Имя файла D:\EAC\Fiddler’s Green\Fiddler’s Green – 2000 – Another Sky\04 Give Me The Time.wav

Пиковый уровень 98.8 %
Качество трека 99.9 %
CRC теста F1F06F81
CRC копии F1F06F81
Точное извлечение (достоверность 8) [ED507308]
Копирование… OK

Трек 5

Имя файла D:\EAC\Fiddler’s Green\Fiddler’s Green – 2000 – Another Sky\05 Storm Inside.wav

Длина предзазора 0:00:00.60

Пиковый уровень 98.8 %
Качество трека 100.0 %
CRC теста B26B2F31
CRC копии B26B2F31
Точное извлечение (достоверность 8) [603CB279]
Копирование… OK

Трек 6

Имя файла D:\EAC\Fiddler’s Green\Fiddler’s Green – 2000 – Another Sky\06 Donkey Riding.wav

Длина предзазора 0:00:00.20

Пиковый уровень 98.8 %
Качество трека 99.9 %
CRC теста 865427A6
CRC копии 865427A6
Точное извлечение (достоверность 8) [0D5D8303]
Копирование… OK

Трек 7

Имя файла D:\EAC\Fiddler’s Green\Fiddler’s Green – 2000 – Another Sky\07 My Way.wav

Пиковый уровень 98.8 %
Качество трека 99.9 %
CRC теста 7CDB1427
CRC копии 7CDB1427
Точное извлечение (достоверность 8) [74B8AF15]
Копирование… OK

Трек 8

Имя файла D:\EAC\Fiddler’s Green\Fiddler’s Green – 2000 – Another Sky\08 Ramblin Rover.wav

Пиковый уровень 98.8 %
Качество трека 100.0 %
CRC теста 76C26549
CRC копии 76C26549
Точное извлечение (достоверность 8) [F267C103]
Копирование… OK

Трек 9

Имя файла D:\EAC\Fiddler’s Green\Fiddler’s Green – 2000 – Another Sky\09 Out Of The Darkness.wav

Длина предзазора 0:00:00.93

Пиковый уровень 98.8 %
Качество трека 99.9 %
CRC теста E471C0E5
CRC копии E471C0E5
Точное извлечение (достоверность 8) [537555CF]
Копирование… OK

Трек 10

Имя файла D:\EAC\Fiddler’s Green\Fiddler’s Green – 2000 – Another Sky\10 Knock On Wood.wav

Пиковый уровень 98.8 %
Качество трека 99.9 %
CRC теста 57D506A8
CRC копии 57D506A8
Точное извлечение (достоверность 8) [47A145E6]
Копирование… OK

Трек 11

Имя файла D:\EAC\Fiddler’s Green\Fiddler’s Green – 2000 – Another Sky\11 Fall For U.wav

Длина предзазора 0:00:01.00

Пиковый уровень 98.8 %
Качество трека 99.9 %
CRC теста F5306E0A
CRC копии F5306E0A
Точное извлечение (достоверность 8) [CC57DBDB]
Копирование… OK

Трек 12

Имя файла D:\EAC\Fiddler’s Green\Fiddler’s Green – 2000 – Another Sky\12 No Need.wav

Пиковый уровень 98.8 %
Качество трека 99.9 %
CRC теста 40B1DA28
CRC копии 40B1DA28
Точное извлечение (достоверность 8) [874ECE23]
Копирование… OK

Трек 13

Имя файла D:\EAC\Fiddler’s Green\Fiddler’s Green – 2000 – Another Sky\13 The Athole Highlanders , Highroad To Linton.wav

Пиковый уровень 98.8 %
Качество трека 99.9 %
CRC теста D825AE43
CRC копии D825AE43
Точное извлечение (достоверность 8) [00739B16]
Копирование… OK

Трек 14

Имя файла D:\EAC\Fiddler’s Green\Fiddler’s Green – 2000 – Another Sky\14 Tullochgorum.wav

Длина предзазора 0:00:00.60

Пиковый уровень 98.8 %
Качество трека 99.9 %
CRC теста 9D300D1C
CRC копии 9D300D1C
Точное извлечение (достоверность 8) [611DC65A]
Копирование… OK

Трек 15

Имя файла D:\EAC\Fiddler’s Green\Fiddler’s Green – 2000 – Another Sky\15 Burn My Fantasies.wav

Пиковый уровень 98.8 %
Качество трека 100.0 %
CRC теста 88908186
CRC копии 88908186
Точное извлечение (достоверность 8) [1DFCC5FA]
Копирование… OK

Все треки извлечены точно

Ошибок не произошло

Конец отчёта

REM GENRE Speedfolk
REM DATE 2000
REM DISCID C30DA50F
REM COMMENT “ExactAudioCopy v0.99pb5”
PERFORMER “Fiddler’s Green”
TITLE “Another Sky”
FILE “01 No Buts About It.wav” WAVE
TRACK 01 AUDIO
TITLE “No Buts About It”
PERFORMER “Fiddler’s Green”
INDEX 01 00:00:00
FILE “02 Queen Of Argyll.wav” WAVE
TRACK 02 AUDIO
TITLE “Queen Of Argyll”
PERFORMER “Fiddler’s Green”
INDEX 01 00:00:00
FILE “03 Another Sky.wav” WAVE
TRACK 03 AUDIO
TITLE “Another Sky”
PERFORMER “Fiddler’s Green”
INDEX 01 00:00:00
FILE “04 Give Me The Time.wav” WAVE
TRACK 04 AUDIO
TITLE “Give Me The Time”
PERFORMER “Fiddler’s Green”
INDEX 01 00:00:00
TRACK 05 AUDIO
TITLE “Storm Inside”
PERFORMER “Fiddler’s Green”
INDEX 00 04:00:57
FILE “05 Storm Inside.wav” WAVE
INDEX 01 00:00:00
TRACK 06 AUDIO
TITLE “Donkey Riding”
PERFORMER “Fiddler’s Green”
INDEX 00 02:19:62
FILE “06 Donkey Riding.wav” WAVE
INDEX 01 00:00:00
FILE “07 My Way.wav” WAVE
TRACK 07 AUDIO
TITLE “My Way”
PERFORMER “Fiddler’s Green”
INDEX 01 00:00:00
FILE “08 Ramblin Rover.wav” WAVE
TRACK 08 AUDIO
TITLE “Ramblin Rover”
PERFORMER “Fiddler’s Green”
INDEX 01 00:00:00
TRACK 09 AUDIO
TITLE “Out Of The Darkness”
PERFORMER “Fiddler’s Green”
INDEX 00 03:24:11
FILE “09 Out Of The Darkness.wav” WAVE
INDEX 01 00:00:00
FILE “10 Knock On Wood.wav” WAVE
TRACK 10 AUDIO
TITLE “Knock On Wood”
PERFORMER “Fiddler’s Green”
INDEX 01 00:00:00
TRACK 11 AUDIO
TITLE “Fall For U”
PERFORMER “Fiddler’s Green”
INDEX 00 02:37:53
FILE “11 Fall For U.wav” WAVE
INDEX 01 00:00:00
FILE “12 No Need.wav” WAVE
TRACK 12 AUDIO
TITLE “No Need”
PERFORMER “Fiddler’s Green”
INDEX 01 00:00:00
FILE “13 The Athole Highlanders , Highroad To Linton.wav” WAVE
TRACK 13 AUDIO
TITLE “The Athole Highlanders / Highroad To Linton”
PERFORMER “Fiddler’s Green”
INDEX 01 00:00:00
TRACK 14 AUDIO
TITLE “Tullochgorum”
PERFORMER “Fiddler’s Green”
INDEX 00 04:12:61
FILE “14 Tullochgorum.wav” WAVE
INDEX 01 00:00:00
FILE “15 Burn My Fantasies.wav” WAVE
TRACK 15 AUDIO
TITLE “Burn My Fantasies”
PERFORMER “Fiddler’s Green”
INDEX 01 00:00:00


Leave a Reply

Your email address will not be published. Required fields are marked *

Enter the text from the image below
 

This site uses Akismet to reduce spam. Learn how your comment data is processed.