FFS – FFS (Deluxe Edition)




No Cover available


Artist: FFS
Year: 2015
Genre: Rock
Notes: Discogs
Add. Notes: Deluxe Edition
Watch Songs on: YouTube
Cover incl.: Yes
Encoder: FLAC
Bitrate: ~900 kBit/s (44.1 kHz/16 Bit/s)
Log & Cue incl.: Yes/Yes
Size: 412,3 MB
Password: “slam” (without ” “)


All Downloads/Hosters are compatible

Download 1
KatFile.com
Turbobit.net
Rapidgator.net
FileFactory.com
Download 2
KatFile.com
Turbobit.net
Rapidgator.net
FileFactory.com

Tracklist:

1 Johnny Delusional 
2 Call Girl 
3 Dictator's Son 
4 Little Guy From The Suburbs 
5 Police Encounters 
6 Save Me From Myself 
7 Sõ Desu Ne 
8 The Man Without A Tan 
9 Things I Won't Get 
10 The Power Couple 
11 Collaborations Don't Work 
12 Piss Off 
13 So Many Bridges 
14 King Of The Song 
15 Look At Me 
16 A Violent Death

EAC-Log, CUE-Sheed & NFO:

Click to open spoiler
Exact Audio Copy V1.0 beta 6 from 9. April 2015

EAC extraction logfile from 6. June 2015, 14:27

Franz Ferdinand & Sparks / F.F.S. (Deluxe Edition)

Used drive : hp CDDVDW SH-216DB Adapter: 1 ID: 0

Read mode : Secure
Utilize accurate stream : Yes
Defeat audio cache : Yes
Make use of C2 pointers : No

Read offset correction : 6
Overread into Lead-In and Lead-Out : No
Fill up missing offset samples with silence : Yes
Delete leading and trailing silent blocks : No
Null samples used in CRC calculations : Yes
Used interface : Native Win32 interface for Win NT & 2000

Used output format : Internal WAV Routines
Sample format : 44.100 Hz; 16 Bit; Stereo

TOC of the extracted CD

Track | Start | Length | Start sector | End sector
———————————————————
1 | 0:00.00 | 3:11.63 | 0 | 14387
2 | 3:11.63 | 3:21.10 | 14388 | 29472
3 | 6:32.73 | 4:15.22 | 29473 | 48619
4 | 10:48.20 | 5:09.06 | 48620 | 71800
5 | 15:57.26 | 3:10.56 | 71801 | 86106
6 | 19:08.07 | 3:57.32 | 86107 | 103913
7 | 23:05.39 | 3:52.28 | 103914 | 121341
8 | 26:57.67 | 3:28.62 | 121342 | 137003
9 | 30:26.54 | 3:03.07 | 137004 | 150735
10 | 33:29.61 | 3:01.71 | 150736 | 164381
11 | 36:31.57 | 6:42.23 | 164382 | 194554
12 | 43:14.05 | 3:55.13 | 194555 | 212192
13 | 47:09.18 | 3:16.22 | 212193 | 226914
14 | 50:25.40 | 3:06.09 | 226915 | 240873
15 | 53:31.49 | 5:43.05 | 240874 | 266603
16 | 59:14.54 | 3:51.36 | 266604 | 283964

Range status and errors

Selected range

Filename E:\POST\Franz Ferdinand & Sparks – F.F.S (EAC)\Franz Ferdinand & Sparks – F.F.S. (Deluxe Edition).wav

Peak level 100.0 %
Extraction speed 7.2 X
Range quality 100.0 %
Test CRC DE1B34B7
Copy CRC DE1B34B7
Copy OK

No errors occurred

AccurateRip summary

Track 1 not present in database
Track 2 not present in database
Track 3 not present in database
Track 4 not present in database
Track 5 not present in database
Track 6 not present in database
Track 7 not present in database
Track 8 not present in database
Track 9 not present in database
Track 10 not present in database
Track 11 not present in database
Track 12 not present in database
Track 13 not present in database
Track 14 not present in database
Track 15 not present in database
Track 16 not present in database

None of the tracks are present in the AccurateRip database

End of status report

REM GENRE Pop
REM DATE 2015
REM DISCID DE0ECA10
REM COMMENT “ExactAudioCopy v1.0b6”
PERFORMER “Franz Ferdinand & Sparks”
TITLE “F.F.S. (Deluxe Edition)”
FILE “Franz Ferdinand & Sparks – F.F.S. (Deluxe Edition).flac” WAVE
TRACK 01 AUDIO
TITLE “Johnny Delusional”
PERFORMER “Franz Ferdinand & Sparks”
INDEX 01 00:00:00
TRACK 02 AUDIO
TITLE “Call Girl”
PERFORMER “Franz Ferdinand & Sparks”
INDEX 01 03:11:63
TRACK 03 AUDIO
TITLE “Dictator’s Son”
PERFORMER “Franz Ferdinand & Sparks”
INDEX 00 06:31:68
INDEX 01 06:32:73
TRACK 04 AUDIO
TITLE “Little Guy From The Suburbs”
PERFORMER “Franz Ferdinand & Sparks”
INDEX 00 10:47:16
INDEX 01 10:48:20
TRACK 05 AUDIO
TITLE “Police Encounters”
PERFORMER “Franz Ferdinand & Sparks”
INDEX 01 15:57:26
TRACK 06 AUDIO
TITLE “Save Me From Myself”
PERFORMER “Franz Ferdinand & Sparks”
INDEX 00 19:06:23
INDEX 01 19:08:07
TRACK 07 AUDIO
TITLE “So Desu Ne”
PERFORMER “Franz Ferdinand & Sparks”
INDEX 01 23:05:39
TRACK 08 AUDIO
TITLE “The Man Without A Tan”
PERFORMER “Franz Ferdinand & Sparks”
INDEX 01 26:57:67
TRACK 09 AUDIO
TITLE “Thing I Won’t Get”
PERFORMER “Franz Ferdinand & Sparks”
INDEX 00 30:25:07
INDEX 01 30:26:54
TRACK 10 AUDIO
TITLE “The Power Couple”
PERFORMER “Franz Ferdinand & Sparks”
INDEX 01 33:29:61
TRACK 11 AUDIO
TITLE “Collaborations Don’t Work”
PERFORMER “Franz Ferdinand & Sparks”
INDEX 00 36:30:01
INDEX 01 36:31:57
TRACK 12 AUDIO
TITLE “Piss Off”
PERFORMER “Franz Ferdinand & Sparks”
INDEX 01 43:14:05
TRACK 13 AUDIO
TITLE “So Many Bridges”
PERFORMER “Franz Ferdinand & Sparks”
INDEX 01 47:09:18
TRACK 14 AUDIO
TITLE “King Of The Song”
PERFORMER “Franz Ferdinand & Sparks”
INDEX 01 50:25:40
TRACK 15 AUDIO
TITLE “Look At Me”
PERFORMER “Franz Ferdinand & Sparks”
INDEX 01 53:31:49
TRACK 16 AUDIO
TITLE “A Violent Death”
PERFORMER “Franz Ferdinand & Sparks”
INDEX 01 59:14:54


Leave a Reply

Your email address will not be published. Required fields are marked *

Enter the text from the image below
 

This site uses Akismet to reduce spam. Learn how your comment data is processed.