Fews – Into Red




Artist: Fews
Year: 2019
Genre: Punk
Notes: Discogs
Add. Notes:
Cover incl.: Yes
Encoder: FLAC
Bitrate: ~900 kBit/s (44.1 kHz/16 Bit/s)
Log & Cue incl.: Yes
Size: 268,76 MB
Password: “slam” (without ” “)


All Downloads/Hosters are compatible

Download 1
Turbobit.net
Rapidgator.net
KatFile.com
UsersDrive.com
UploadRar.com
Download 2
Turbobit.net
Rapidgator.net
KatFile.com
UsersDrive.com
UploadRar.com
Download 3
Turbobit.net
Rapidgator.net
KatFile.com
UsersDrive.com
UploadRar.com

Tracklist:

1. Quiet
2. Paradiso
3. More Than Ever
4. Suppose 
5. Limits
6. Business Man
7. 97
8. Anything Else
9. Over
10. Fiction

EAC-Log, CUE-Sheed & NFO:

Click to open spoiler
Exact Audio Copy V1.3 from 2. September 2016

EAC extraction logfile from 14. May 2019, 19:10

Fews / Into Red

Used drive : ASUS BC-12B1ST b Adapter: 1 ID: 0

Read mode : Secure
Utilize accurate stream : Yes
Defeat audio cache : Yes
Make use of C2 pointers : No

Read offset correction : 6
Overread into Lead-In and Lead-Out : No
Fill up missing offset samples with silence : Yes
Delete leading and trailing silent blocks : No
Null samples used in CRC calculations : Yes
Used interface : Native Win32 interface for Win NT & 2000
Gap handling : Appended to previous track

Used output format : User Defined Encoder
Selected bitrate : 1024 kBit/s
Quality : High
Add ID3 tag : No
Command line compressor : C:\Program Files (x86)\Exact Audio Copy\Flac\flac.exe
Additional command line options : -8 -e -p -V -T “ARTIST=%artist%” -T “TITLE=%title%” -T “ALBUM=%albumtitle%” -T “DATE=%year%” -T “TRACKNUMBER=%tracknr%” -T “GENRE=%genre%” -T “PERFORMER=%albuminterpret%” -T “COMPOSER=%composer%” %haslyrics%–tag-from-file=LYRICS=”%lyricsfile%”%haslyrics% -T “ALBUMARTIST=%albumartist%” -T “DISCNUMBER=%cdnumber%” -T “TOTALDISCS=%totalcds%” -T “TOTALTRACKS=%numtracks%” -T “COMMENT=%comment%” %source% -o %dest%

TOC of the extracted CD

Track | Start | Length | Start sector | End sector
———————————————————
1 | 0:00.00 | 4:42.12 | 0 | 21161
2 | 4:42.12 | 4:11.31 | 21162 | 40017
3 | 8:53.43 | 3:19.64 | 40018 | 55006
4 | 12:13.32 | 3:26.30 | 55007 | 70486
5 | 15:39.62 | 4:02.57 | 70487 | 88693
6 | 19:42.44 | 4:08.29 | 88694 | 107322
7 | 23:50.73 | 4:11.24 | 107323 | 126171
8 | 28:02.22 | 4:47.60 | 126172 | 147756
9 | 32:50.07 | 2:40.74 | 147757 | 159830
10 | 35:31.06 | 4:27.54 | 159831 | 179909

Track 1

Filename E:\rips\Fews – Into Red (2019) [FLAC]\01 – Quiet.wav

Pre-gap length 0:00:02.00

Peak level 96.6 %
Extraction speed 1.5 X
Track quality 99.9 %
Test CRC 6628E875
Copy CRC 6628E875
Accurately ripped (confidence 1) [A05F9B79] (AR v2)
Copy OK

Track 2

Filename E:\rips\Fews – Into Red (2019) [FLAC]\02 – Paradiso.wav

Peak level 96.6 %
Extraction speed 2.2 X
Track quality 100.0 %
Test CRC 2EB5E4CA
Copy CRC 2EB5E4CA
Accurately ripped (confidence 1) [D71707C0] (AR v2)
Copy OK

Track 3

Filename E:\rips\Fews – Into Red (2019) [FLAC]\03 – More Than Ever.wav

Peak level 96.6 %
Extraction speed 1.6 X
Track quality 99.9 %
Test CRC 0A8062C7
Copy CRC 0A8062C7
Accurately ripped (confidence 1) [38D3DCD6] (AR v2)
Copy OK

Track 4

Filename E:\rips\Fews – Into Red (2019) [FLAC]\04 – Suppose.wav

Peak level 96.6 %
Extraction speed 2.5 X
Track quality 100.0 %
Test CRC 301DA102
Copy CRC 301DA102
Accurately ripped (confidence 1) [6591C9E6] (AR v2)
Copy OK

Track 5

Filename E:\rips\Fews – Into Red (2019) [FLAC]\05 – Limits.wav

Peak level 96.6 %
Extraction speed 2.7 X
Track quality 100.0 %
Test CRC BF30B8B4
Copy CRC BF30B8B4
Accurately ripped (confidence 1) [FF4539B9] (AR v2)
Copy OK

Track 6

Filename E:\rips\Fews – Into Red (2019) [FLAC]\06 – Business Man.wav

Peak level 96.6 %
Extraction speed 2.9 X
Track quality 100.0 %
Test CRC 285385B8
Copy CRC 285385B8
Accurately ripped (confidence 1) [B5B4843F] (AR v2)
Copy OK

Track 7

Filename E:\rips\Fews – Into Red (2019) [FLAC]\07 – 97.wav

Peak level 96.6 %
Extraction speed 2.2 X
Track quality 99.9 %
Test CRC 24C174A5
Copy CRC 24C174A5
Accurately ripped (confidence 1) [F63A5E3C] (AR v2)
Copy OK

Track 8

Filename E:\rips\Fews – Into Red (2019) [FLAC]\08 – Anything Else.wav

Peak level 96.6 %
Extraction speed 2.5 X
Track quality 99.9 %
Test CRC 414E8AE5
Copy CRC 414E8AE5
Accurately ripped (confidence 1) [4D012479] (AR v2)
Copy OK

Track 9

Filename E:\rips\Fews – Into Red (2019) [FLAC]\09 – Over.wav

Peak level 96.6 %
Extraction speed 2.0 X
Track quality 99.9 %
Test CRC 4E23C97E
Copy CRC 4E23C97E
Accurately ripped (confidence 1) [40869D87] (AR v2)
Copy OK

Track 10

Filename E:\rips\Fews – Into Red (2019) [FLAC]\10 – Fiction.wav

Peak level 96.6 %
Extraction speed 3.4 X
Track quality 100.0 %
Test CRC E09AD635
Copy CRC E09AD635
Accurately ripped (confidence 1) [22DCD69F] (AR v2)
Copy OK

All tracks accurately ripped

No errors occurred

End of status report

—- CUETools DB Plugin V2.1.6

[CTDB TOCID: NzJQI0Va_5isdDRqnySTNrpU0sY-] found
Submit result: NzJQI0Va_5isdDRqnySTNrpU0sY- has been confirmed
Track | CTDB Status
1 | (1/1) Accurately ripped
2 | (1/1) Accurately ripped
3 | (1/1) Accurately ripped
4 | (1/1) Accurately ripped
5 | (1/1) Accurately ripped
6 | (1/1) Accurately ripped
7 | (1/1) Accurately ripped
8 | (1/1) Accurately ripped
9 | (1/1) Accurately ripped
10 | (1/1) Accurately ripped

==== Log checksum 06CF19225A677937EC81DBE38F5DC48A660F4174152D14D50BBADA7C6AE475E4 ====

REM GENRE Indie
REM DATE 2019
REM DISCID 81095E0A
REM COMMENT “ExactAudioCopy v1.3”
CATALOG 5400863004729
PERFORMER “Fews”
TITLE “Into Red”
REM COMPOSER “”
FILE “01 – Quiet.wav” WAVE
TRACK 01 AUDIO
TITLE “Quiet”
PERFORMER “Fews”
REM COMPOSER “”
ISRC GBENL1802249
FLAGS DCP
INDEX 01 00:00:00
FILE “02 – Paradiso.wav” WAVE
TRACK 02 AUDIO
TITLE “Paradiso”
PERFORMER “Fews”
REM COMPOSER “”
ISRC GBENL1802245
FLAGS DCP
INDEX 01 00:00:00
FILE “03 – More Than Ever.wav” WAVE
TRACK 03 AUDIO
TITLE “More Than Ever”
PERFORMER “Fews”
REM COMPOSER “”
ISRC GBENL1802247
FLAGS DCP
INDEX 01 00:00:00
FILE “04 – Suppose.wav” WAVE
TRACK 04 AUDIO
TITLE “Suppose”
PERFORMER “Fews”
REM COMPOSER “”
ISRC GBENL1802246
FLAGS DCP
INDEX 01 00:00:00
FILE “05 – Limits.wav” WAVE
TRACK 05 AUDIO
TITLE “Limits”
PERFORMER “Fews”
REM COMPOSER “”
ISRC GBENL1802250
FLAGS DCP
INDEX 01 00:00:00
FILE “06 – Business Man.wav” WAVE
TRACK 06 AUDIO
TITLE “Business Man”
PERFORMER “Fews”
REM COMPOSER “”
ISRC GBENL1802250
FLAGS DCP
INDEX 01 00:00:00
FILE “07 – 97.wav” WAVE
TRACK 07 AUDIO
TITLE “97”
PERFORMER “Fews”
REM COMPOSER “”
ISRC GBENL1802248
FLAGS DCP
INDEX 01 00:00:00
FILE “08 – Anything Else.wav” WAVE
TRACK 08 AUDIO
TITLE “Anything Else”
PERFORMER “Fews”
REM COMPOSER “”
ISRC GBENL1802251
FLAGS DCP
INDEX 01 00:00:00
FILE “09 – Over.wav” WAVE
TRACK 09 AUDIO
TITLE “Over”
PERFORMER “Fews”
REM COMPOSER “”
ISRC GBENL1802252
FLAGS DCP
INDEX 01 00:00:00
FILE “10 – Fiction.wav” WAVE
TRACK 10 AUDIO
TITLE “Fiction”
PERFORMER “Fews”
REM COMPOSER “”
ISRC GBENL1802253
FLAGS DCP
INDEX 01 00:00:00


Leave a Reply

Your email address will not be published. Required fields are marked *

This site uses Akismet to reduce spam. Learn how your comment data is processed.