Farin Urlaub Racing Team – Livealbum Of Death




Artist: Farin Urlaub Racing Team
Year: 2006
Genre: Ska
Notes: Discogs
Add. Notes:
Cover incl.: Yes
Encoder: FLAC
Bitrate: ~1100 kBit/s (44.1 kHz/16 Bit/s)
Log & Cue incl.: Yes
Size: 677,46 MB
Password: “slam” (without ” “)


All Downloads/Hosters are compatible

Download 1
Turbobit.net
Rapidgator.net
UploadEver.com
KatFile.com
UsersDrive.com
Download 2
Turbobit.net
Rapidgator.net
UploadEver.com
KatFile.com
UsersDrive.com
Download 3
Turbobit.net
Rapidgator.net
UploadEver.com
KatFile.com
UsersDrive.com

Tracklist:

1 - Mehr - 3:19
2 - Augenblick - 3:22
3 - Am Strand - 2:51
4 - Wie Ich Den Marilyn-Manson - 3:04
5 - Glücklich - 2:57
6 - Petze - 3:12
7 - Noch Einmal - 3:51
8 - Dermitder - 5:10
9 - Wunderbar - 2:50
10 - Phänomenal Egal - 3:52
11 - Sonne - 4:34
12 - Apocalypse Wann Anders - 4:07
13 - Lieber Staat - 4:04
14 - Porzellan - 3:48
15 - Zehn - 4:07
16 - Der Ziemlich Okaye Popsong - 3:14
17 - OK / Kein Zurück - 5:25
18 - Unter Wasser - 4:44
19 - Immer Noch - 5:47
20 - Dusche - 4:04
21 - Wo Ist Das Problem? - 4:55
22 - Abschiedslied - 4:14

EAC-Log, CUE-Sheed & NFO:

Click to open spoiler
Exact Audio Copy V0.99 prebeta 5 from 4. May 2009

EAC extraction logfile from 15. July 2009, 13:31

Farin Urlaub Racing Team / Livealbum of Death

Used drive : LITE-ON DVD SOHD-16P9SV Adapter: 1 ID: 0

Read mode : Secure
Utilize accurate stream : Yes
Defeat audio cache : Yes
Make use of C2 pointers : No

Read offset correction : 6
Overread into Lead-In and Lead-Out : No
Fill up missing offset samples with silence : Yes
Delete leading and trailing silent blocks : No
Null samples used in CRC calculations : Yes
Used interface : Native Win32 interface for Win NT & 2000
Gap handling : Appended to previous track

Used output format : User Defined Encoder
Selected bitrate : 320 kBit/s
Quality : High
Add ID3 tag : No
Command line compressor : C:\Programme\Exact Audio Copy\Flac\flac.exe
Additional command line options : -V -8 -T “artist=%a” -T “title=%t” -T “album=%g” -T “date=%y” -T “tracknumber=%n” -T “genre=%m” %s

TOC of the extracted CD

Track | Start | Length | Start sector | End sector
———————————————————
1 | 0:00.00 | 3:19.65 | 0 | 14989
2 | 3:19.65 | 3:22.39 | 14990 | 30178
3 | 6:42.29 | 2:51.51 | 30179 | 43054
4 | 9:34.05 | 3:04.32 | 43055 | 56886
5 | 12:38.37 | 2:57.20 | 56887 | 70181
6 | 15:35.57 | 3:12.07 | 70182 | 84588
7 | 18:47.64 | 3:51.52 | 84589 | 101965
8 | 22:39.41 | 5:10.64 | 101966 | 125279
9 | 27:50.30 | 2:50.04 | 125280 | 138033
10 | 30:40.34 | 3:52.45 | 138034 | 155478
11 | 34:33.04 | 4:34.40 | 155479 | 176068
12 | 39:07.44 | 4:07.39 | 176069 | 194632
13 | 43:15.08 | 4:04.69 | 194633 | 213001
14 | 47:20.02 | 3:48.28 | 213002 | 230129
15 | 51:08.30 | 4:07.37 | 230130 | 248691
16 | 55:15.67 | 3:14.31 | 248692 | 263272
17 | 58:30.23 | 5:25.72 | 263273 | 287719
18 | 63:56.20 | 4:44.27 | 287720 | 309046
19 | 68:40.47 | 5:47.48 | 309047 | 335119
20 | 74:28.20 | 4:04.59 | 335120 | 353478
21 | 78:33.04 | 4:55.22 | 353479 | 375625
22 | 83:28.26 | 4:14.49 | 375626 | 394724

Track 1

Filename D:\Farin Urlaub Racing Team – Livealbum of Death\01 – Mehr.wav

Pre-gap length 0:00:02.00

Peak level 98.8 %
Track quality 100.0 %
Test CRC FBD9197E
Copy CRC FBD9197E
Accurately ripped (confidence 49) [75A7C944]
Copy OK

Track 2

Filename D:\Farin Urlaub Racing Team – Livealbum of Death\02 – Augenblick.wav

Peak level 98.8 %
Track quality 100.0 %
Test CRC 52A81E42
Copy CRC 52A81E42
Accurately ripped (confidence 49) [EC2F6263]
Copy OK

Track 3

Filename D:\Farin Urlaub Racing Team – Livealbum of Death\03 – Am Strand.wav

Peak level 98.8 %
Track quality 99.9 %
Test CRC F352E54A
Copy CRC F352E54A
Accurately ripped (confidence 49) [AC9ACE5E]
Copy OK

Track 4

Filename D:\Farin Urlaub Racing Team – Livealbum of Death\04 – Wie ich den Marilyn-Manson-Ähnlichkeitswettbewerb verlor.wav

Peak level 98.8 %
Track quality 100.0 %
Test CRC FE86E0F4
Copy CRC FE86E0F4
Accurately ripped (confidence 48) [929B581D]
Copy OK

Track 5

Filename D:\Farin Urlaub Racing Team – Livealbum of Death\05 – Glücklich.wav

Peak level 98.8 %
Track quality 100.0 %
Test CRC 628F30D2
Copy CRC 628F30D2
Accurately ripped (confidence 49) [C79F1698]
Copy OK

Track 6

Filename D:\Farin Urlaub Racing Team – Livealbum of Death\06 – Petze.wav

Peak level 98.8 %
Track quality 100.0 %
Test CRC BD67B5FF
Copy CRC BD67B5FF
Accurately ripped (confidence 49) [0753AD16]
Copy OK

Track 7

Filename D:\Farin Urlaub Racing Team – Livealbum of Death\07 – Noch einmal.wav

Peak level 98.8 %
Track quality 100.0 %
Test CRC 5405DDCC
Copy CRC 5405DDCC
Accurately ripped (confidence 48) [358B645A]
Copy OK

Track 8

Filename D:\Farin Urlaub Racing Team – Livealbum of Death\08 – Dermitder.wav

Peak level 98.8 %
Track quality 100.0 %
Test CRC BF6BE397
Copy CRC BF6BE397
Accurately ripped (confidence 48) [EA196AC7]
Copy OK

Track 9

Filename D:\Farin Urlaub Racing Team – Livealbum of Death\09 – Wunderbar.wav

Peak level 98.8 %
Track quality 100.0 %
Test CRC B4F0170E
Copy CRC B4F0170E
Accurately ripped (confidence 48) [96B0E8B6]
Copy OK

Track 10

Filename D:\Farin Urlaub Racing Team – Livealbum of Death\10 – Phänomenal egal.wav

Peak level 98.8 %
Track quality 100.0 %
Test CRC 998F896F
Copy CRC 998F896F
Accurately ripped (confidence 49) [CF184657]
Copy OK

Track 11

Filename D:\Farin Urlaub Racing Team – Livealbum of Death\11 – Sonne.wav

Peak level 98.8 %
Track quality 100.0 %
Test CRC 0E604235
Copy CRC 0E604235
Accurately ripped (confidence 49) [2A6D0616]
Copy OK

Track 12

Filename D:\Farin Urlaub Racing Team – Livealbum of Death\12 – Apocalypse wann anders.wav

Peak level 98.8 %
Track quality 100.0 %
Test CRC 44F924CC
Copy CRC 44F924CC
Accurately ripped (confidence 49) [48514048]
Copy OK

Track 13

Filename D:\Farin Urlaub Racing Team – Livealbum of Death\13 – Lieber Staat.wav

Peak level 98.8 %
Track quality 100.0 %
Test CRC FFF4AA9B
Copy CRC FFF4AA9B
Accurately ripped (confidence 49) [4E7895A5]
Copy OK

Track 14

Filename D:\Farin Urlaub Racing Team – Livealbum of Death\14 – Porzellan.wav

Peak level 98.8 %
Track quality 100.0 %
Test CRC 2F06DFDD
Copy CRC 2F06DFDD
Accurately ripped (confidence 49) [00B69C12]
Copy OK

Track 15

Filename D:\Farin Urlaub Racing Team – Livealbum of Death\15 – Zehn.wav

Peak level 98.8 %
Track quality 100.0 %
Test CRC F1A157C2
Copy CRC F1A157C2
Accurately ripped (confidence 47) [619D4C2A]
Copy OK

Track 16

Filename D:\Farin Urlaub Racing Team – Livealbum of Death\16 – Der ziemlich okaye Popsong.wav

Peak level 98.8 %
Track quality 100.0 %
Test CRC 00A59086
Copy CRC 00A59086
Accurately ripped (confidence 49) [4F557F4C]
Copy OK

Track 17

Filename D:\Farin Urlaub Racing Team – Livealbum of Death\17 – OK , Kein Zurück.wav

Peak level 98.8 %
Track quality 100.0 %
Test CRC C5AC7B9E
Copy CRC C5AC7B9E
Accurately ripped (confidence 50) [3AF1838A]
Copy OK

Track 18

Filename D:\Farin Urlaub Racing Team – Livealbum of Death\18 – Unter Wasser.wav

Peak level 98.8 %
Track quality 100.0 %
Test CRC D15D3DA7
Copy CRC D15D3DA7
Accurately ripped (confidence 48) [91B93564]
Copy OK

Track 19

Filename D:\Farin Urlaub Racing Team – Livealbum of Death\19 – Immer noch.wav

Peak level 98.8 %
Track quality 100.0 %
Test CRC 8876E699
Copy CRC 8876E699
Accurately ripped (confidence 48) [557C0BB3]
Copy OK

Track 20

Filename D:\Farin Urlaub Racing Team – Livealbum of Death\20 – Dusche.wav

Peak level 98.8 %
Track quality 100.0 %
Test CRC C21AF314
Copy CRC C21AF314
Accurately ripped (confidence 47) [6122D6EC]
Copy OK

Track 21

Filename D:\Farin Urlaub Racing Team – Livealbum of Death\21 – Wo ist das Problem .wav

Peak level 98.8 %
Track quality 100.0 %
Test CRC D6BF3553
Copy CRC D6BF3553
Accurately ripped (confidence 46) [2D8DA403]
Copy OK

Track 22

Filename D:\Farin Urlaub Racing Team – Livealbum of Death\22 – Abschiedslied.wav

Peak level 98.8 %
Track quality 100.0 %
Test CRC 6D07DCA9
Copy CRC 6D07DCA9
Accurately ripped (confidence 45) [75DCA7AC]
Copy OK

All tracks accurately ripped

No errors occurred

End of status report

REM GENRE Rock
REM DATE 2006
REM DISCID 26148F16
REM COMMENT “ExactAudioCopy v0.99pb5”
PERFORMER “Farin Urlaub Racing Team”
TITLE “Livealbum of Death”
FILE “01 – Mehr.wav” WAVE
TRACK 01 AUDIO
TITLE “Mehr”
PERFORMER “Farin Urlaub Racing Team”
INDEX 01 00:00:00
FILE “02 – Augenblick.wav” WAVE
TRACK 02 AUDIO
TITLE “Augenblick”
PERFORMER “Farin Urlaub Racing Team”
INDEX 01 00:00:00
FILE “03 – Am Strand.wav” WAVE
TRACK 03 AUDIO
TITLE “Am Strand”
PERFORMER “Farin Urlaub Racing Team”
INDEX 01 00:00:00
FILE “04 – Wie ich den Marilyn-Manson-Ähnlichkeitswettbewerb verlor.wav” WAVE
TRACK 04 AUDIO
TITLE “Wie ich den Marilyn-Manson-Ähnlichkeitswettbewerb verlor”
PERFORMER “Farin Urlaub Racing Team”
INDEX 01 00:00:00
FILE “05 – Glücklich.wav” WAVE
TRACK 05 AUDIO
TITLE “Glücklich”
PERFORMER “Farin Urlaub Racing Team”
INDEX 01 00:00:00
FILE “06 – Petze.wav” WAVE
TRACK 06 AUDIO
TITLE “Petze”
PERFORMER “Farin Urlaub Racing Team”
INDEX 01 00:00:00
FILE “07 – Noch einmal.wav” WAVE
TRACK 07 AUDIO
TITLE “Noch einmal”
PERFORMER “Farin Urlaub Racing Team”
INDEX 01 00:00:00
FILE “08 – Dermitder.wav” WAVE
TRACK 08 AUDIO
TITLE “Dermitder”
PERFORMER “Farin Urlaub Racing Team”
INDEX 01 00:00:00
FILE “09 – Wunderbar.wav” WAVE
TRACK 09 AUDIO
TITLE “Wunderbar”
PERFORMER “Farin Urlaub Racing Team”
INDEX 01 00:00:00
FILE “10 – Phänomenal egal.wav” WAVE
TRACK 10 AUDIO
TITLE “Phänomenal egal”
PERFORMER “Farin Urlaub Racing Team”
INDEX 01 00:00:00
FILE “11 – Sonne.wav” WAVE
TRACK 11 AUDIO
TITLE “Sonne”
PERFORMER “Farin Urlaub Racing Team”
INDEX 01 00:00:00
FILE “12 – Apocalypse wann anders.wav” WAVE
TRACK 12 AUDIO
TITLE “Apocalypse wann anders”
PERFORMER “Farin Urlaub Racing Team”
INDEX 01 00:00:00
FILE “13 – Lieber Staat.wav” WAVE
TRACK 13 AUDIO
TITLE “Lieber Staat”
PERFORMER “Farin Urlaub Racing Team”
INDEX 01 00:00:00
FILE “14 – Porzellan.wav” WAVE
TRACK 14 AUDIO
TITLE “Porzellan”
PERFORMER “Farin Urlaub Racing Team”
INDEX 01 00:00:00
FILE “15 – Zehn.wav” WAVE
TRACK 15 AUDIO
TITLE “Zehn”
PERFORMER “Farin Urlaub Racing Team”
INDEX 01 00:00:00
FILE “16 – Der ziemlich okaye Popsong.wav” WAVE
TRACK 16 AUDIO
TITLE “Der ziemlich okaye Popsong”
PERFORMER “Farin Urlaub Racing Team”
INDEX 01 00:00:00
FILE “17 – OK , Kein Zurück.wav” WAVE
TRACK 17 AUDIO
TITLE “OK / Kein Zurück”
PERFORMER “Farin Urlaub Racing Team”
INDEX 01 00:00:00
FILE “18 – Unter Wasser.wav” WAVE
TRACK 18 AUDIO
TITLE “Unter Wasser”
PERFORMER “Farin Urlaub Racing Team”
INDEX 01 00:00:00
FILE “19 – Immer noch.wav” WAVE
TRACK 19 AUDIO
TITLE “Immer noch”
PERFORMER “Farin Urlaub Racing Team”
INDEX 01 00:00:00
FILE “20 – Dusche.wav” WAVE
TRACK 20 AUDIO
TITLE “Dusche”
PERFORMER “Farin Urlaub Racing Team”
INDEX 01 00:00:00
FILE “21 – Wo ist das Problem .wav” WAVE
TRACK 21 AUDIO
TITLE “Wo ist das Problem?”
PERFORMER “Farin Urlaub Racing Team”
INDEX 01 00:00:00
FILE “22 – Abschiedslied.wav” WAVE
TRACK 22 AUDIO
TITLE “Abschiedslied”
PERFORMER “Farin Urlaub Racing Team”
INDEX 01 00:00:00


Leave a Reply

Your email address will not be published. Required fields are marked *

Enter the text from the image below
 

This site uses Akismet to reduce spam. Learn how your comment data is processed.