Farin Urlaub Racing Team – Die Wahrheit Übers Lügen




Artist: Farin Urlaub Racing Team
Year: 2008
Genre: Punk
Notes: Discogs
Add. Notes:
Cover incl.: Yes
Encoder: FLAC
Bitrate: ~1000 kBit/s (44.1 kHz/16 Bit/s)
Log & Cue incl.: Yes
Size: 352,1 MB
Password: “slam” (without ” “)


All Downloads/Hosters are compatible

Download 1
Turbobit.net
Rapidgator.net
UploadEver.com
KatFile.com
UsersDrive.com
Download 2
Turbobit.net
Rapidgator.net
UploadEver.com
KatFile.com
UsersDrive.com
Download 3
Turbobit.net
Rapidgator.net
UploadEver.com
KatFile.com
UsersDrive.com

Tracklist:

Großes Album
1-1 Nichimgriff 2:46
1-2 Unscharf 2:55
1-3 Gobi Todic 2:33
1-4 Seltsam 2:51
1-5 Krieg 3:15
1-6 Pakistan 2:51
1-7 Niemals 3:31
1-8 Die Leiche 3:46
1-9 Monster 3:28
1-10 Atem 4:10
1-11 Karten 4:21
Kleines Album
2-1 I.F.D.G. 4:07
2-2 Zu Heiss 4:04
2-3 Insel 3:29
2-4 Trotzdem 2:18

EAC-Log, CUE-Sheed & NFO:

Click to open spoiler
Exact Audio Copy V0.99 prebeta 5 from 4. May 2009

EAC extraction logfile from 13. July 2009, 21:30

Farin Urlaub Racing Team / Die Wahrheit übers Lügen (kleines Album)

Used drive : MATSHITADVD-RAM UJ-830S Adapter: 1 ID: 0

Read mode : Secure
Utilize accurate stream : Yes
Defeat audio cache : Yes
Make use of C2 pointers : No

Read offset correction : 102
Overread into Lead-In and Lead-Out : No
Fill up missing offset samples with silence : Yes
Delete leading and trailing silent blocks : No
Null samples used in CRC calculations : Yes
Used interface : Native Win32 interface for Win NT & 2000
Gap handling : Appended to previous track

Used output format : User Defined Encoder
Selected bitrate : 192 kBit/s
Quality : High
Add ID3 tag : No
Command line compressor : D:\anwendungen\Exact Audio Copy v995\Flac\flac.exe
Additional command line options : -V -8 -T “artist=%a” -T “title=%t” -T “album=%g” -T “date=%y” -T “tracknumber=%n” -T “genre=%m” %s

TOC of the extracted CD

Track | Start | Length | Start sector | End sector
———————————————————
1 | 0:00.00 | 4:06.53 | 0 | 18502
2 | 4:06.53 | 4:03.74 | 18503 | 36801
3 | 8:10.52 | 3:29.02 | 36802 | 52478
4 | 11:39.54 | 2:18.35 | 52479 | 62863

Track 1

Filename E:\Farin Urlaub Racing Team – Die Wahrheit übers Lügen (kleines Album)\Farin Urlaub Racing Team – Die Wahrheit übers Lügen (kleines Album) – 01 I.F.D.G..wav

Pre-gap length 0:00:02.00

Peak level 97.7 %
Track quality 99.9 %
Test CRC B8BE6684
Copy CRC B8BE6684
Accurately ripped (confidence 49) [48B77763]
Copy OK

Track 2

Filename E:\Farin Urlaub Racing Team – Die Wahrheit übers Lügen (kleines Album)\Farin Urlaub Racing Team – Die Wahrheit übers Lügen (kleines Album) – 02 Zu heiss.wav

Peak level 97.7 %
Track quality 100.0 %
Test CRC 5AB6E7B2
Copy CRC 5AB6E7B2
Accurately ripped (confidence 49) [CD3DC35C]
Copy OK

Track 3

Filename E:\Farin Urlaub Racing Team – Die Wahrheit übers Lügen (kleines Album)\Farin Urlaub Racing Team – Die Wahrheit übers Lügen (kleines Album) – 03 Insel.wav

Peak level 97.7 %
Track quality 100.0 %
Test CRC A18F4880
Copy CRC A18F4880
Accurately ripped (confidence 49) [48F85555]
Copy OK

Track 4

Filename E:\Farin Urlaub Racing Team – Die Wahrheit übers Lügen (kleines Album)\Farin Urlaub Racing Team – Die Wahrheit übers Lügen (kleines Album) – 04 Trotzdem.wav

Pre-gap length 0:00:01.69

Peak level 97.7 %
Track quality 99.9 %
Test CRC F60E850F
Copy CRC F60E850F
Accurately ripped (confidence 49) [8C5570E9]
Copy OK

All tracks accurately ripped

No errors occurred

End of status report

Exact Audio Copy V0.99 prebeta 5 from 4. May 2009

EAC extraction logfile from 13. July 2009, 23:05

Farin Urlaub Racing Team / Die Wahrheit übers Lügen (großes Album)

Used drive : MATSHITADVD-RAM UJ-830S Adapter: 1 ID: 0

Read mode : Secure
Utilize accurate stream : Yes
Defeat audio cache : Yes
Make use of C2 pointers : No

Read offset correction : 102
Overread into Lead-In and Lead-Out : No
Fill up missing offset samples with silence : Yes
Delete leading and trailing silent blocks : No
Null samples used in CRC calculations : Yes
Used interface : Native Win32 interface for Win NT & 2000
Gap handling : Appended to previous track

Used output format : User Defined Encoder
Selected bitrate : 192 kBit/s
Quality : High
Add ID3 tag : No
Command line compressor : D:\anwendungen\Exact Audio Copy v995\Flac\flac.exe
Additional command line options : -V -8 -T “artist=%a” -T “title=%t” -T “album=%g” -T “date=%y” -T “tracknumber=%n” -T “genre=%m” %s

TOC of the extracted CD

Track | Start | Length | Start sector | End sector
———————————————————
1 | 0:00.00 | 2:46.16 | 0 | 12465
2 | 2:46.16 | 2:55.27 | 12466 | 25617
3 | 5:41.43 | 2:32.62 | 25618 | 37079
4 | 8:14.30 | 2:51.09 | 37080 | 49913
5 | 11:05.39 | 3:15.03 | 49914 | 64541
6 | 14:20.42 | 2:50.45 | 64542 | 77336
7 | 17:11.12 | 3:31.28 | 77337 | 93189
8 | 20:42.40 | 3:45.68 | 93190 | 110132
9 | 24:28.33 | 3:28.12 | 110133 | 125744
10 | 27:56.45 | 4:09.43 | 125745 | 144462
11 | 32:06.13 | 4:21.24 | 144463 | 164061

Track 1

Filename E:\Farin Urlaub Racing Team – Die Wahrheit übers Lügen (großes Album)\Farin Urlaub Racing Team – Die Wahrheit übers Lügen (großes Album) – 01 Nichimgriff.wav

Pre-gap length 0:00:02.00

Peak level 98.7 %
Track quality 100.0 %
Test CRC C638D8FA
Copy CRC C638D8FA
Accurately ripped (confidence 57) [536D1460]
Copy OK

Track 2

Filename E:\Farin Urlaub Racing Team – Die Wahrheit übers Lügen (großes Album)\Farin Urlaub Racing Team – Die Wahrheit übers Lügen (großes Album) – 02 Unscharf.wav

Peak level 97.7 %
Track quality 100.0 %
Test CRC A71054BE
Copy CRC A71054BE
Accurately ripped (confidence 59) [A2988B10]
Copy OK

Track 3

Filename E:\Farin Urlaub Racing Team – Die Wahrheit übers Lügen (großes Album)\Farin Urlaub Racing Team – Die Wahrheit übers Lügen (großes Album) – 03 Gobi Todic.wav

Peak level 98.7 %
Track quality 100.0 %
Test CRC 840F444C
Copy CRC 840F444C
Accurately ripped (confidence 60) [5B3773AF]
Copy OK

Track 4

Filename E:\Farin Urlaub Racing Team – Die Wahrheit übers Lügen (großes Album)\Farin Urlaub Racing Team – Die Wahrheit übers Lügen (großes Album) – 04 Seltsam.wav

Peak level 97.7 %
Track quality 100.0 %
Test CRC 99A18E09
Copy CRC 99A18E09
Accurately ripped (confidence 59) [B362A5E3]
Copy OK

Track 5

Filename E:\Farin Urlaub Racing Team – Die Wahrheit übers Lügen (großes Album)\Farin Urlaub Racing Team – Die Wahrheit übers Lügen (großes Album) – 05 Krieg.wav

Peak level 97.7 %
Track quality 100.0 %
Test CRC F23A70BC
Copy CRC F23A70BC
Accurately ripped (confidence 60) [4B04A630]
Copy OK

Track 6

Filename E:\Farin Urlaub Racing Team – Die Wahrheit übers Lügen (großes Album)\Farin Urlaub Racing Team – Die Wahrheit übers Lügen (großes Album) – 06 Pakistan.wav

Pre-gap length 0:00:00.63

Peak level 97.7 %
Track quality 100.0 %
Test CRC DD19BCDF
Copy CRC DD19BCDF
Accurately ripped (confidence 58) [BF6C3A19]
Copy OK

Track 7

Filename E:\Farin Urlaub Racing Team – Die Wahrheit übers Lügen (großes Album)\Farin Urlaub Racing Team – Die Wahrheit übers Lügen (großes Album) – 07 Niemals.wav

Peak level 97.7 %
Track quality 100.0 %
Test CRC EB4C2C82
Copy CRC EB4C2C82
Accurately ripped (confidence 59) [15CA579E]
Copy OK

Track 8

Filename E:\Farin Urlaub Racing Team – Die Wahrheit übers Lügen (großes Album)\Farin Urlaub Racing Team – Die Wahrheit übers Lügen (großes Album) – 08 Die Leiche.wav

Pre-gap length 0:00:02.50

Peak level 81.5 %
Track quality 100.0 %
Test CRC 0B81AFE1
Copy CRC 0B81AFE1
Accurately ripped (confidence 59) [C5298A5D]
Copy OK

Track 9

Filename E:\Farin Urlaub Racing Team – Die Wahrheit übers Lügen (großes Album)\Farin Urlaub Racing Team – Die Wahrheit übers Lügen (großes Album) – 09 Monster.wav

Peak level 97.3 %
Track quality 100.0 %
Test CRC 4A497C45
Copy CRC 4A497C45
Accurately ripped (confidence 59) [8962A2DD]
Copy OK

Track 10

Filename E:\Farin Urlaub Racing Team – Die Wahrheit übers Lügen (großes Album)\Farin Urlaub Racing Team – Die Wahrheit übers Lügen (großes Album) – 10 Atem.wav

Pre-gap length 0:00:02.56

Peak level 96.6 %
Track quality 100.0 %
Test CRC 4DFF47C8
Copy CRC 4DFF47C8
Accurately ripped (confidence 59) [A9D8E5E4]
Copy OK

Track 11

Filename E:\Farin Urlaub Racing Team – Die Wahrheit übers Lügen (großes Album)\Farin Urlaub Racing Team – Die Wahrheit übers Lügen (großes Album) – 11 Karten.wav

Pre-gap length 0:00:02.02

Peak level 97.7 %
Track quality 99.9 %
Test CRC 83425F84
Copy CRC 83425F84
Accurately ripped (confidence 60) [67C471E0]
Copy OK

All tracks accurately ripped

No errors occurred

End of status report

REM GENRE “Punk Rock”
REM DATE 2008
REM DISCID 99088B0B
REM COMMENT “ExactAudioCopy v0.99pb5”
PERFORMER “Farin Urlaub Racing Team”
TITLE “Die Wahrheit übers Lügen (großes Album)”
FILE “01 Nichimgriff.wav” WAVE
TRACK 01 AUDIO
TITLE “Nichimgriff”
PERFORMER “Farin Urlaub Racing Team”
FLAGS DCP
INDEX 01 00:00:00
FILE “02 Unscharf.wav” WAVE
TRACK 02 AUDIO
TITLE “Unscharf”
PERFORMER “Farin Urlaub Racing Team”
FLAGS DCP
INDEX 01 00:00:00
FILE “03 Gobi Todic.wav” WAVE
TRACK 03 AUDIO
TITLE “Gobi Todic”
PERFORMER “Farin Urlaub Racing Team”
FLAGS DCP
INDEX 01 00:00:00
FILE “04 Seltsam.wav” WAVE
TRACK 04 AUDIO
TITLE “Seltsam”
PERFORMER “Farin Urlaub Racing Team”
FLAGS DCP
INDEX 01 00:00:00
FILE “05 Krieg.wav” WAVE
TRACK 05 AUDIO
TITLE “Krieg”
PERFORMER “Farin Urlaub Racing Team”
FLAGS DCP
INDEX 01 00:00:00
TRACK 06 AUDIO
TITLE “Pakistan”
PERFORMER “Farin Urlaub Racing Team”
FLAGS DCP
INDEX 00 03:14:15
FILE “06 Pakistan.wav” WAVE
INDEX 01 00:00:00
FILE “07 Niemals.wav” WAVE
TRACK 07 AUDIO
TITLE “Niemals”
PERFORMER “Farin Urlaub Racing Team”
FLAGS DCP
INDEX 01 00:00:00
TRACK 08 AUDIO
TITLE “Die Leiche”
PERFORMER “Farin Urlaub Racing Team”
FLAGS DCP
INDEX 00 03:28:53
FILE “08 Die Leiche.wav” WAVE
INDEX 01 00:00:00
FILE “09 Monster.wav” WAVE
TRACK 09 AUDIO
TITLE “Monster”
PERFORMER “Farin Urlaub Racing Team”
FLAGS DCP
INDEX 01 00:00:00
TRACK 10 AUDIO
TITLE “Atem”
PERFORMER “Farin Urlaub Racing Team”
FLAGS DCP
INDEX 00 03:25:31
FILE “10 Atem.wav” WAVE
INDEX 01 00:00:00
TRACK 11 AUDIO
TITLE “Karten”
PERFORMER “Farin Urlaub Racing Team”
FLAGS DCP
INDEX 00 04:07:41
FILE “11 Karten.wav” WAVE
INDEX 01 00:00:00

REM GENRE “Punk Rock”
REM DATE 2008
REM DISCID 27034604
REM COMMENT “ExactAudioCopy v0.99pb5”
PERFORMER “Farin Urlaub Racing Team”
TITLE “Die Wahrheit übers Lügen (kleines Album)”
FILE “01 I.F.D.G..wav” WAVE
TRACK 01 AUDIO
TITLE “I.F.D.G.”
PERFORMER “Farin Urlaub Racing Team”
FLAGS DCP
INDEX 01 00:00:00
FILE “02 Zu heiss.wav” WAVE
TRACK 02 AUDIO
TITLE “Zu heiss”
PERFORMER “Farin Urlaub Racing Team”
FLAGS DCP
INDEX 01 00:00:00
FILE “03 Insel.wav” WAVE
TRACK 03 AUDIO
TITLE “Insel”
PERFORMER “Farin Urlaub Racing Team”
FLAGS DCP
INDEX 01 00:00:00
TRACK 04 AUDIO
TITLE “Trotzdem”
PERFORMER “Farin Urlaub Racing Team”
FLAGS DCP
INDEX 00 03:27:08
FILE “04 Trotzdem.wav” WAVE
INDEX 01 00:00:00


Leave a Reply

Your email address will not be published. Required fields are marked *

This site uses Akismet to reduce spam. Learn how your comment data is processed.