Farin Urlaub – Endlich Urlaub!




Artist: Farin Urlaub
Year: 2001
Genre: Punk
Notes: Discogs
Add. Notes:
Cover incl.: Yes
Encoder: FLAC
Bitrate: ~1000 kBit/s (44.1 kHz/16 Bit/s)
Log & Cue incl.: Yes
Size: 348,77 MB
Password: “slam” (without ” “)


All Downloads/Hosters are compatible

Download 1
Turbobit.net
Rapidgator.net
UploadEver.com
KatFile.com
UsersDrive.com
Download 2
Turbobit.net
Rapidgator.net
UploadEver.com
KatFile.com
UsersDrive.com
Download 3
Turbobit.net
Rapidgator.net
UploadEver.com
KatFile.com
UsersDrive.com

Tracklist:

1 - Intro (Manche Nennen Es Musik) - 1:03
2 - Jeden Tag Sonntag - 2:10
3 - Sumisu - 2:14
4 - Glücklich - 2:56
5 - Ich Gehöre Nicht Dazu - 3:17
6 - OK - 4:19
7 - Der Kavalier - 3:28
8 - Am Strand - 2:46
9 - Wunderbar - 2:39
10 - Das Schöne Mädchen - 4:38
11 - 1000 Jahre Schlechten Sex - 3:30
12 - ... Und Die Gitarre War Noch Warm - 3:40
13 - Lieber Staat - 3:54
14 - Phänomenal Egal - 3:14
15 - Abschiedslied - 3:28
16 - Outro (Ja, Das Wurde Auch Zeit) - 2:23

EAC-Log, CUE-Sheed & NFO:

Click to open spoiler
Exact Audio Copy V0.99 prebeta 5 from 4. May 2009

EAC extraction logfile from 13. July 2009, 20:41

Farin Urlaub / Endlich Urlaub!

Used drive : MATSHITADVD-RAM UJ-830S Adapter: 1 ID: 0

Read mode : Secure
Utilize accurate stream : Yes
Defeat audio cache : Yes
Make use of C2 pointers : No

Read offset correction : 102
Overread into Lead-In and Lead-Out : No
Fill up missing offset samples with silence : Yes
Delete leading and trailing silent blocks : No
Null samples used in CRC calculations : Yes
Used interface : Native Win32 interface for Win NT & 2000
Gap handling : Appended to previous track

Used output format : User Defined Encoder
Selected bitrate : 192 kBit/s
Quality : High
Add ID3 tag : No
Command line compressor : D:\anwendungen\Exact Audio Copy v995\Flac\flac.exe
Additional command line options : -V -8 -T “artist=%a” -T “title=%t” -T “album=%g” -T “date=%y” -T “tracknumber=%n” -T “genre=%m” %s

TOC of the extracted CD

Track | Start | Length | Start sector | End sector
———————————————————
1 | 0:00.00 | 1:03.20 | 0 | 4744
2 | 1:03.20 | 2:10.42 | 4745 | 14536
3 | 3:13.62 | 2:14.00 | 14537 | 24586
4 | 5:27.62 | 2:56.10 | 24587 | 37796
5 | 8:23.72 | 3:16.35 | 37797 | 52531
6 | 11:40.32 | 4:19.20 | 52532 | 71976
7 | 15:59.52 | 3:27.55 | 71977 | 87556
8 | 19:27.32 | 2:46.10 | 87557 | 100016
9 | 22:13.42 | 2:39.28 | 100017 | 111969
10 | 24:52.70 | 4:37.70 | 111970 | 132814
11 | 29:30.65 | 3:30.02 | 132815 | 148566
12 | 33:00.67 | 3:39.38 | 148567 | 165029
13 | 36:40.30 | 3:53.70 | 165030 | 182574
14 | 40:34.25 | 3:13.57 | 182575 | 197106
15 | 43:48.07 | 3:28.60 | 197107 | 212766
16 | 47:16.67 | 2:22.30 | 212767 | 223446

Track 1

Filename E:\Farin Urlaub – Endlich Urlaub!\Farin Urlaub – Endlich Urlaub! – 01 Intro (Manche nennen es Musik).wav

Pre-gap length 0:00:02.00

Peak level 100.0 %
Track quality 100.0 %
Test CRC 25247EBA
Copy CRC 25247EBA
Accurately ripped (confidence 29) [DFA6D8A7]
Copy OK

Track 2

Filename E:\Farin Urlaub – Endlich Urlaub!\Farin Urlaub – Endlich Urlaub! – 02 Jeden Tag Sonntag.wav

Peak level 99.9 %
Track quality 100.0 %
Test CRC 5291583C
Copy CRC 5291583C
Accurately ripped (confidence 28) [52203C92]
Copy OK

Track 3

Filename E:\Farin Urlaub – Endlich Urlaub!\Farin Urlaub – Endlich Urlaub! – 03 Sumisu.wav

Peak level 84.0 %
Track quality 100.0 %
Test CRC CF266803
Copy CRC CF266803
Accurately ripped (confidence 29) [52DAC335]
Copy OK

Track 4

Filename E:\Farin Urlaub – Endlich Urlaub!\Farin Urlaub – Endlich Urlaub! – 04 Glücklich.wav

Peak level 99.9 %
Track quality 100.0 %
Test CRC 169AE15E
Copy CRC 169AE15E
Accurately ripped (confidence 29) [FF7C61A0]
Copy OK

Track 5

Filename E:\Farin Urlaub – Endlich Urlaub!\Farin Urlaub – Endlich Urlaub! – 05 Ich gehöre nicht dazu.wav

Peak level 99.9 %
Track quality 100.0 %
Test CRC 3EBB3720
Copy CRC 3EBB3720
Accurately ripped (confidence 29) [0078673A]
Copy OK

Track 6

Filename E:\Farin Urlaub – Endlich Urlaub!\Farin Urlaub – Endlich Urlaub! – 06 OK.wav

Pre-gap length 0:00:01.00

Peak level 100.0 %
Track quality 100.0 %
Test CRC 43E5BD93
Copy CRC 43E5BD93
Accurately ripped (confidence 29) [FDC64D42]
Copy OK

Track 7

Filename E:\Farin Urlaub – Endlich Urlaub!\Farin Urlaub – Endlich Urlaub! – 07 Der Kavalier.wav

Peak level 70.7 %
Track quality 100.0 %
Test CRC F9120A7B
Copy CRC F9120A7B
Accurately ripped (confidence 29) [94F3966C]
Copy OK

Track 8

Filename E:\Farin Urlaub – Endlich Urlaub!\Farin Urlaub – Endlich Urlaub! – 08 Am Strand.wav

Peak level 100.0 %
Track quality 100.0 %
Test CRC 255D207B
Copy CRC 255D207B
Accurately ripped (confidence 28) [B95B17DD]
Copy OK

Track 9

Filename E:\Farin Urlaub – Endlich Urlaub!\Farin Urlaub – Endlich Urlaub! – 09 Wunderbar.wav

Peak level 100.0 %
Track quality 99.9 %
Test CRC 2AE10DC1
Copy CRC 2AE10DC1
Accurately ripped (confidence 29) [50BC53C0]
Copy OK

Track 10

Filename E:\Farin Urlaub – Endlich Urlaub!\Farin Urlaub – Endlich Urlaub! – 10 Das schöne Mädchen.wav

Peak level 100.0 %
Track quality 99.9 %
Test CRC D9CC1425
Copy CRC D9CC1425
Accurately ripped (confidence 28) [DEDABEED]
Copy OK

Track 11

Filename E:\Farin Urlaub – Endlich Urlaub!\Farin Urlaub – Endlich Urlaub! – 11 1000 Jahre schlechten Sex.wav

Peak level 100.0 %
Track quality 100.0 %
Test CRC 59E8833E
Copy CRC 59E8833E
Accurately ripped (confidence 28) [BA536A2D]
Copy OK

Track 12

Filename E:\Farin Urlaub – Endlich Urlaub!\Farin Urlaub – Endlich Urlaub! – 12 … und die Gitarre war noch warm.wav

Peak level 100.0 %
Track quality 99.9 %
Test CRC 66CCCDA0
Copy CRC 66CCCDA0
Accurately ripped (confidence 29) [09AA957E]
Copy OK

Track 13

Filename E:\Farin Urlaub – Endlich Urlaub!\Farin Urlaub – Endlich Urlaub! – 13 Lieber Staat.wav

Peak level 99.9 %
Track quality 100.0 %
Test CRC 12E01893
Copy CRC 12E01893
Accurately ripped (confidence 28) [DF4583DB]
Copy OK

Track 14

Filename E:\Farin Urlaub – Endlich Urlaub!\Farin Urlaub – Endlich Urlaub! – 14 Phänomenal egal.wav

Peak level 70.7 %
Track quality 100.0 %
Test CRC F13464A2
Copy CRC F13464A2
Accurately ripped (confidence 29) [9094A7FE]
Copy OK

Track 15

Filename E:\Farin Urlaub – Endlich Urlaub!\Farin Urlaub – Endlich Urlaub! – 15 Abschiedslied.wav

Peak level 99.9 %
Track quality 100.0 %
Test CRC 0E0F756B
Copy CRC 0E0F756B
Accurately ripped (confidence 29) [3932CCFD]
Copy OK

Track 16

Filename E:\Farin Urlaub – Endlich Urlaub!\Farin Urlaub – Endlich Urlaub! – 16 Outro (Ja, das wurde auch Zeit).wav

Peak level 99.9 %
Track quality 100.0 %
Test CRC 2042DCB6
Copy CRC 2042DCB6
Accurately ripped (confidence 29) [C477E35A]
Copy OK

All tracks accurately ripped

No errors occurred

End of status report

REM GENRE “Punk Rock”
REM DATE 2001
REM DISCID D60BA310
REM COMMENT “ExactAudioCopy v0.99pb5”
PERFORMER “Farin Urlaub”
TITLE “Endlich Urlaub!”
FILE “01 Intro (Manche nennen es Musik).wav” WAVE
TRACK 01 AUDIO
TITLE “Intro (Manche nennen es Musik)”
PERFORMER “Farin Urlaub”
INDEX 01 00:00:00
FILE “02 Jeden Tag Sonntag.wav” WAVE
TRACK 02 AUDIO
TITLE “Jeden Tag Sonntag”
PERFORMER “Farin Urlaub”
INDEX 01 00:00:00
FILE “03 Sumisu.wav” WAVE
TRACK 03 AUDIO
TITLE “Sumisu”
PERFORMER “Farin Urlaub”
INDEX 01 00:00:00
FILE “04 Glücklich.wav” WAVE
TRACK 04 AUDIO
TITLE “Glücklich”
PERFORMER “Farin Urlaub”
INDEX 01 00:00:00
FILE “05 Ich gehöre nicht dazu.wav” WAVE
TRACK 05 AUDIO
TITLE “Ich gehöre nicht dazu”
PERFORMER “Farin Urlaub”
INDEX 01 00:00:00
TRACK 06 AUDIO
TITLE “OK”
PERFORMER “Farin Urlaub”
INDEX 00 03:15:35
FILE “06 OK.wav” WAVE
INDEX 01 00:00:00
FILE “07 Der Kavalier.wav” WAVE
TRACK 07 AUDIO
TITLE “Der Kavalier”
PERFORMER “Farin Urlaub”
INDEX 01 00:00:00
FILE “08 Am Strand.wav” WAVE
TRACK 08 AUDIO
TITLE “Am Strand”
PERFORMER “Farin Urlaub”
INDEX 01 00:00:00
FILE “09 Wunderbar.wav” WAVE
TRACK 09 AUDIO
TITLE “Wunderbar”
PERFORMER “Farin Urlaub”
INDEX 01 00:00:00
FILE “10 Das schöne Mädchen.wav” WAVE
TRACK 10 AUDIO
TITLE “Das schöne Mädchen”
PERFORMER “Farin Urlaub”
INDEX 01 00:00:00
FILE “11 1000 Jahre schlechten Sex.wav” WAVE
TRACK 11 AUDIO
TITLE “1000 Jahre schlechten Sex”
PERFORMER “Farin Urlaub”
INDEX 01 00:00:00
FILE “12 … und die Gitarre war noch warm.wav” WAVE
TRACK 12 AUDIO
TITLE “… und die Gitarre war noch warm”
PERFORMER “Farin Urlaub”
INDEX 01 00:00:00
FILE “13 Lieber Staat.wav” WAVE
TRACK 13 AUDIO
TITLE “Lieber Staat”
PERFORMER “Farin Urlaub”
INDEX 01 00:00:00
FILE “14 Phänomenal egal.wav” WAVE
TRACK 14 AUDIO
TITLE “Phänomenal egal”
PERFORMER “Farin Urlaub”
INDEX 01 00:00:00
FILE “15 Abschiedslied.wav” WAVE
TRACK 15 AUDIO
TITLE “Abschiedslied”
PERFORMER “Farin Urlaub”
INDEX 01 00:00:00
FILE “16 Outro (Ja, das wurde auch Zeit).wav” WAVE
TRACK 16 AUDIO
TITLE “Outro (Ja, das wurde auch Zeit)”
PERFORMER “Farin Urlaub”
INDEX 01 00:00:00

Leave a Reply

Your email address will not be published. Required fields are marked *

This site uses Akismet to reduce spam. Learn how your comment data is processed.