Farin Urlaub – Am Ende der Sonne




Artist: Farin Urlaub
Year: 2005
Genre: Ska
Notes: Discogs
Add. Notes:
Cover incl.: Yes
Encoder: FLAC
Bitrate: ~1000 kBit/s (44.1 kHz/16 Bit/s)
Log & Cue incl.: Yes
Size: 412,26 MB
Password: “slam” (without ” “)


All Downloads/Hosters are compatible

Download 1
Turbobit.net
Rapidgator.net
UploadEver.com
KatFile.com
UsersDrive.com
Download 2
Turbobit.net
Rapidgator.net
UploadEver.com
KatFile.com
UsersDrive.com
Download 3
Turbobit.net
Rapidgator.net
UploadEver.com
KatFile.com
UsersDrive.com

Tracklist:

0 - Noch Einmal 
1 - Mehr - 3:14
2 - Sonne - 4:40
3 - Augenblick - 3:08
4 - Porzellan - 3:51
5 - Unter Wasser - 4:02
6 - Wie Ich Den Marilyn-Manson-Ähnlichkeitswettbewerb 
Verlor - 3:11
7 - Unsichtbar - 3:14
8 - Apocalypse Wann Anders - 4:02
9 - Schon Wieder - 1:18
10 - Immer Noch - 4:38
11 - Alle Dasselbe - 3:27
12 - Kein Zurück - 4:54
13 - Dermitder - 4:02
14 - Dusche - 4:11

EAC-Log, CUE-Sheed & NFO:

Click to open spoiler
Exact Audio Copy V0.99 prebeta 5 from 4. May 2009

EAC extraction logfile from 20. February 2010, 16:56

Farin Urlaub / Am Ende der Sonne

Used drive : HL-DT-STDVDRAM GSA-4040B Adapter: 0 ID: 1

Read mode : Secure
Utilize accurate stream : Yes
Defeat audio cache : Yes
Make use of C2 pointers : No

Read offset correction : 667
Overread into Lead-In and Lead-Out : No
Fill up missing offset samples with silence : Yes
Delete leading and trailing silent blocks : No
Null samples used in CRC calculations : Yes
Used interface : Native Win32 interface for Win NT & 2000
Gap handling : Appended to previous track

Used output format : User Defined Encoder
Selected bitrate : 1024 kBit/s
Quality : High
Add ID3 tag : No
Command line compressor : C:\Program Files\Exact Audio Copy\Flac\flac.exe
Additional command line options : -8 -V -T “ARTIST=%a” -T “TITLE=%t” -T “ALBUM=%g” -T “DATE=%y” -T “TRACKNUMBER=%n” -T “GENRE=%m” -T “COMMENT=ripped with eac 0.99 prebeta 5, secure mode, test and copy, encoded with flac-1.2.1b, -8” %s

TOC of the extracted CD

Track | Start | Length | Start sector | End sector
———————————————————
1 | 4:48.20 | 3:14.11 | 21620 | 36180
2 | 8:02.31 | 4:40.65 | 36181 | 57245
3 | 12:43.21 | 3:07.65 | 57246 | 71335
4 | 15:51.11 | 3:51.36 | 71336 | 88696
5 | 19:42.47 | 4:02.15 | 88697 | 106861
6 | 23:44.62 | 3:11.57 | 106862 | 121243
7 | 26:56.44 | 3:14.35 | 121244 | 135828
8 | 30:11.04 | 4:02.21 | 135829 | 153999
9 | 34:13.25 | 1:18.51 | 154000 | 159900
10 | 35:32.01 | 4:37.74 | 159901 | 180749
11 | 40:10.00 | 3:27.47 | 180750 | 196321
12 | 43:37.47 | 4:54.40 | 196322 | 218411
13 | 48:32.12 | 4:02.47 | 218412 | 236608
14 | 52:34.59 | 4:11.63 | 236609 | 255496

Track 1

Filename M:\My torrents\Farin Urlaub [lossless]\2005 – Am Ende der Sonne\01 – Mehr.wav

Pre-gap length 0:04:50.26

Peak level 98.8 %
Track quality 100.0 %
Test CRC 7796336D
Copy CRC 7796336D
Accurately ripped (confidence 30) [0CD9BEA7]
Copy OK

Track 2

Filename M:\My torrents\Farin Urlaub [lossless]\2005 – Am Ende der Sonne\02 – Sonne.wav

Pre-gap length 0:00:02.26

Peak level 98.8 %
Track quality 100.0 %
Test CRC 306CCE78
Copy CRC 306CCE78
Accurately ripped (confidence 30) [2044DD89]
Copy OK

Track 3

Filename M:\My torrents\Farin Urlaub [lossless]\2005 – Am Ende der Sonne\03 – Augenblick.wav

Pre-gap length 0:00:02.57

Peak level 98.8 %
Track quality 100.0 %
Test CRC 8B3199C3
Copy CRC 8B3199C3
Accurately ripped (confidence 30) [0FF11EA5]
Copy OK

Track 4

Filename M:\My torrents\Farin Urlaub [lossless]\2005 – Am Ende der Sonne\04 – Porzellan.wav

Peak level 98.8 %
Track quality 100.0 %
Test CRC 92C6C93D
Copy CRC 92C6C93D
Accurately ripped (confidence 30) [003EF6C6]
Copy OK

Track 5

Filename M:\My torrents\Farin Urlaub [lossless]\2005 – Am Ende der Sonne\05 – Unter Wasser.wav

Pre-gap length 0:00:02.68

Peak level 98.8 %
Track quality 100.0 %
Test CRC 3C6C7D29
Copy CRC 3C6C7D29
Accurately ripped (confidence 29) [C218DF68]
Copy OK

Track 6

Filename M:\My torrents\Farin Urlaub [lossless]\2005 – Am Ende der Sonne\06 – Wie ich den Marilyn-Manson-Ahnlichkeitswettbewerb verlor.wav

Peak level 98.8 %
Track quality 100.0 %
Test CRC 0252E2E7
Copy CRC 0252E2E7
Accurately ripped (confidence 30) [D46837C7]
Copy OK

Track 7

Filename M:\My torrents\Farin Urlaub [lossless]\2005 – Am Ende der Sonne\07 – Unsichtbar.wav

Pre-gap length 0:00:02.12

Peak level 98.8 %
Track quality 100.0 %
Test CRC 9A384654
Copy CRC 9A384654
Accurately ripped (confidence 30) [DBF5EFFA]
Copy OK

Track 8

Filename M:\My torrents\Farin Urlaub [lossless]\2005 – Am Ende der Sonne\08 – Apocalypse wann anders.wav

Pre-gap length 0:00:02.69

Peak level 98.8 %
Track quality 100.0 %
Test CRC 0FE997CC
Copy CRC 0FE997CC
Accurately ripped (confidence 30) [1B45BF56]
Copy OK

Track 9

Filename M:\My torrents\Farin Urlaub [lossless]\2005 – Am Ende der Sonne\09 – Schon wieder.wav

Pre-gap length 0:00:03.45

Peak level 98.8 %
Track quality 99.8 %
Test CRC 1D633C1B
Copy CRC 1D633C1B
Accurately ripped (confidence 30) [2BDCF12A]
Copy OK

Track 10

Filename M:\My torrents\Farin Urlaub [lossless]\2005 – Am Ende der Sonne\10 – Immer noch.wav

Peak level 98.8 %
Track quality 100.0 %
Test CRC 6607EB79
Copy CRC 6607EB79
Accurately ripped (confidence 30) [EE872B28]
Copy OK

Track 11

Filename M:\My torrents\Farin Urlaub [lossless]\2005 – Am Ende der Sonne\11 – Alle dasselbe.wav

Pre-gap length 0:00:03.41

Peak level 98.8 %
Track quality 100.0 %
Test CRC 38B1B001
Copy CRC 38B1B001
Accurately ripped (confidence 30) [6F6DC022]
Copy OK

Track 12

Filename M:\My torrents\Farin Urlaub [lossless]\2005 – Am Ende der Sonne\12 – Kein zuruck.wav

Pre-gap length 0:00:01.90

Peak level 98.8 %
Track quality 99.9 %
Test CRC 4889088C
Copy CRC 4889088C
Accurately ripped (confidence 29) [BEA92FBC]
Copy OK

Track 13

Filename M:\My torrents\Farin Urlaub [lossless]\2005 – Am Ende der Sonne\13 – Dermitder.wav

Peak level 98.8 %
Track quality 100.0 %
Test CRC 3792C36C
Copy CRC 3792C36C
Accurately ripped (confidence 29) [AD188888]
Copy OK

Track 14

Filename M:\My torrents\Farin Urlaub [lossless]\2005 – Am Ende der Sonne\14 – Dusche.wav

Peak level 98.8 %
Track quality 100.0 %
Test CRC 0071BB16
Copy CRC 0071BB16
Accurately ripped (confidence 28) [EBA1E9EB]
Copy OK

All tracks accurately ripped

No errors occurred

End of status report

REM GENRE Rock
REM DATE 2005
REM DISCID C60C2E0E
REM COMMENT “ExactAudioCopy v0.99pb5”
PERFORMER “Farin Urlaub”
TITLE “Am Ende der Sonne”
FILE “00 – Pregap.wav” WAVE
TRACK 01 AUDIO
TITLE “Mehr”
PERFORMER “Farin Urlaub”
INDEX 00 00:00:00
FILE “01 – Mehr.wav” WAVE
INDEX 01 00:00:00
TRACK 02 AUDIO
TITLE “Sonne”
PERFORMER “Farin Urlaub”
INDEX 00 03:11:66
FILE “02 – Sonne.wav” WAVE
INDEX 01 00:00:00
TRACK 03 AUDIO
TITLE “Augenblick”
PERFORMER “Farin Urlaub”
INDEX 00 04:38:22
FILE “03 – Augenblick.wav” WAVE
INDEX 01 00:00:00
FILE “04 – Porzellan.wav” WAVE
TRACK 04 AUDIO
TITLE “Porzellan”
PERFORMER “Farin Urlaub”
INDEX 01 00:00:00
TRACK 05 AUDIO
TITLE “Unter Wasser”
PERFORMER “Farin Urlaub”
INDEX 00 03:48:60
FILE “05 – Unter Wasser.wav” WAVE
INDEX 01 00:00:00
FILE “06 – Wie ich den Marilyn-Manson-Ahnlichkeitswettbewerb verlor.wav” WAVE
TRACK 06 AUDIO
TITLE “Wie ich den Marilyn-Manson-Ahnlichkeitswettbewerb verlor”
PERFORMER “Farin Urlaub”
INDEX 01 00:00:00
TRACK 07 AUDIO
TITLE “Unsichtbar”
PERFORMER “Farin Urlaub”
INDEX 00 03:09:48
FILE “07 – Unsichtbar.wav” WAVE
INDEX 01 00:00:00
TRACK 08 AUDIO
TITLE “Apocalypse wann anders”
PERFORMER “Farin Urlaub”
INDEX 00 03:11:58
FILE “08 – Apocalypse wann anders.wav” WAVE
INDEX 01 00:00:00
TRACK 09 AUDIO
TITLE “Schon wieder”
PERFORMER “Farin Urlaub”
INDEX 00 03:58:62
FILE “09 – Schon wieder.wav” WAVE
INDEX 01 00:00:00
FILE “10 – Immer noch.wav” WAVE
TRACK 10 AUDIO
TITLE “Immer noch”
PERFORMER “Farin Urlaub”
INDEX 01 00:00:00
TRACK 11 AUDIO
TITLE “Alle dasselbe”
PERFORMER “Farin Urlaub”
INDEX 00 04:34:43
FILE “11 – Alle dasselbe.wav” WAVE
INDEX 01 00:00:00
TRACK 12 AUDIO
TITLE “Kein zuruck”
PERFORMER “Farin Urlaub”
INDEX 00 03:25:54
FILE “12 – Kein zuruck.wav” WAVE
INDEX 01 00:00:00
FILE “13 – Dermitder.wav” WAVE
TRACK 13 AUDIO
TITLE “Dermitder”
PERFORMER “Farin Urlaub”
INDEX 01 00:00:00
FILE “14 – Dusche.wav” WAVE
TRACK 14 AUDIO
TITLE “Dusche”
PERFORMER “Farin Urlaub”
INDEX 01 00:00:00

Leave a Reply

Your email address will not be published. Required fields are marked *

This site uses Akismet to reduce spam. Learn how your comment data is processed.