Fall Out Boy – Save Rock And Roll




Artist: Fall Out Boy
Year: 2013
Genre: Rock
Notes: Discogs
Add. Notes:
Cover incl.: Yes
Encoder: FLAC
Bitrate: ~1000 kBit/s (44.1 kHz/16 Bit/s)
Log & Cue incl.: Yes
Size: 298,19 MB
Password: “slam” (without ” “)


All Downloads/Hosters are compatible

Download 1
Turbobit.net
Rapidgator.net
UploadByte.com
UploadEver.com
JustUpload.io
Download 2
Turbobit.net
Rapidgator.net
UploadByte.com
UploadEver.com
JustUpload.io
Download 3
Turbobit.net
Rapidgator.net
UploadByte.com
UploadEver.com
JustUpload.io

Tracklist:

1 - The Phoenix - 4:04
2 - My Songs Know What You Did In The Dark (Light Em 
Up) - 3:06
3 - Alone Together - 3:23
4 - Where Did The Party Go - 4:03
5 - Just One Yesterday - 4:04
6 - The Mighty Fall - 3:32
7 - Miss Missing You - 3:30
8 - Death Valley - 3:46
9 - Young Volcanoes - 3:24
10 - Rat A Tat - 4:02
11 - Save Rock And Roll - 4:41

EAC-Log, CUE-Sheed & NFO:

Click to open spoiler
Exact Audio Copy V1.0 beta 3 from 29. August 2011

EAC extraction logfile from 16. April 2013, 17:22

Fall Out Boy / Save Rock And Roll

Used drive : MATSHITADVD-RAM UJ8B0 Adapter: 1 ID: 0

Read mode : Secure
Utilize accurate stream : Yes
Defeat audio cache : Yes
Make use of C2 pointers : No

Read offset correction : 102
Overread into Lead-In and Lead-Out : No
Fill up missing offset samples with silence : Yes
Delete leading and trailing silent blocks : No
Null samples used in CRC calculations : Yes
Used interface : Native Win32 interface for Win NT & 2000
Gap handling : Appended to previous track

Used output format : User Defined Encoder
Selected bitrate : 1024 kBit/s
Quality : High
Add ID3 tag : No
Command line compressor : C:\Program Files (x86)\Exact Audio Copy\FLAC\FLAC.EXE
Additional command line options : -6 -V -T “ARTIST=%artist%” -T “TITLE=%title%” -T “ALBUM=%albumtitle%” -T “DATE=%year%” -T “TRACKNUMBER=%tracknr%” -T “GENRE=%genre%” -T “COMMENT=%comment%” -T “BAND=%albuminterpret%” -T “ALBUMARTIST=%albuminterpret%” -T “COMPOSER=%composer%” %haslyrics%–tag-from-file=LYRICS=”%lyricsfile%”%haslyrics% -T “DISCNUMBER=%cdnumber%” -T “TOTALDISCS=%totalcds%” -T “TOTALTRACKS=%numtracks%” %hascover%–picture=”%coverfile%”%hascover% %source% -o %dest%

TOC of the extracted CD

Track | Start | Length | Start sector | End sector
———————————————————
1 | 0:00.00 | 4:04.72 | 0 | 18371
2 | 4:04.72 | 3:06.62 | 18372 | 32383
3 | 7:11.59 | 3:23.31 | 32384 | 47639
4 | 10:35.15 | 4:03.03 | 47640 | 65867
5 | 14:38.18 | 4:04.54 | 65868 | 84221
6 | 18:42.72 | 3:32.53 | 84222 | 100174
7 | 22:15.50 | 3:31.02 | 100175 | 116001
8 | 25:46.52 | 3:46.54 | 116002 | 133005
9 | 29:33.31 | 3:24.38 | 133006 | 148343
10 | 32:57.69 | 4:02.38 | 148344 | 166531
11 | 37:00.32 | 4:41.06 | 166532 | 187612

Track 1

Filename C:\EAC Rips\Fall Out Boy – Save Rock And Roll (2013) [FLAC CD]\01. Fall Out Boy – The Phoenix.wav

Pre-gap length 0:00:02.00

Peak level 98.8 %
Extraction speed 1.5 X
Track quality 100.0 %
Test CRC E8DC62FB
Copy CRC E8DC62FB
Track not present in AccurateRip database
Copy OK

Track 2

Filename C:\EAC Rips\Fall Out Boy – Save Rock And Roll (2013) [FLAC CD]\02. Fall Out Boy – My Songs Know What You Did In The Dark (Light Em Up).wav

Peak level 100.0 %
Extraction speed 1.5 X
Track quality 100.0 %
Test CRC DF507D2A
Copy CRC DF507D2A
Track not present in AccurateRip database
Copy OK

Track 3

Filename C:\EAC Rips\Fall Out Boy – Save Rock And Roll (2013) [FLAC CD]\03. Fall Out Boy – Alone Together.wav

Peak level 100.0 %
Extraction speed 1.7 X
Track quality 100.0 %
Test CRC D54511C1
Copy CRC D54511C1
Track not present in AccurateRip database
Copy OK

Track 4

Filename C:\EAC Rips\Fall Out Boy – Save Rock And Roll (2013) [FLAC CD]\04. Fall Out Boy – Where Did The Party Go.wav

Peak level 100.0 %
Extraction speed 1.7 X
Track quality 99.9 %
Test CRC D68CA0BF
Copy CRC D68CA0BF
Track not present in AccurateRip database
Copy OK

Track 5

Filename C:\EAC Rips\Fall Out Boy – Save Rock And Roll (2013) [FLAC CD]\05. Fall Out Boy – Just One Yesterday.wav

Peak level 100.0 %
Extraction speed 2.0 X
Track quality 100.0 %
Test CRC 6494894A
Copy CRC 6494894A
Track not present in AccurateRip database
Copy OK

Track 6

Filename C:\EAC Rips\Fall Out Boy – Save Rock And Roll (2013) [FLAC CD]\06. Fall Out Boy – The Mighty Fall (Feat. Big Sean).wav

Peak level 98.8 %
Extraction speed 2.1 X
Track quality 100.0 %
Test CRC 6075EFF8
Copy CRC 6075EFF8
Track not present in AccurateRip database
Copy OK

Track 7

Filename C:\EAC Rips\Fall Out Boy – Save Rock And Roll (2013) [FLAC CD]\07. Fall Out Boy – Miss Missing You.wav

Pre-gap length 0:00:00.24

Peak level 100.0 %
Extraction speed 2.2 X
Track quality 100.0 %
Test CRC 21801932
Copy CRC 21801932
Track not present in AccurateRip database
Copy OK

Track 8

Filename C:\EAC Rips\Fall Out Boy – Save Rock And Roll (2013) [FLAC CD]\08. Fall Out Boy – Death Valley.wav

Peak level 100.0 %
Extraction speed 2.0 X
Track quality 99.9 %
Test CRC D81A2603
Copy CRC D81A2603
Track not present in AccurateRip database
Copy OK

Track 9

Filename C:\EAC Rips\Fall Out Boy – Save Rock And Roll (2013) [FLAC CD]\09. Fall Out Boy – Young Volcanoes.wav

Peak level 99.8 %
Extraction speed 2.0 X
Track quality 99.9 %
Test CRC 2B46DF9E
Copy CRC 2B46DF9E
Track not present in AccurateRip database
Copy OK

Track 10

Filename C:\EAC Rips\Fall Out Boy – Save Rock And Roll (2013) [FLAC CD]\10. Fall Out Boy – Rat A Tat (Feat. Courtney Love).wav

Peak level 97.7 %
Extraction speed 2.5 X
Track quality 100.0 %
Test CRC BE1197A2
Copy CRC BE1197A2
Track not present in AccurateRip database
Copy OK

Track 11

Filename C:\EAC Rips\Fall Out Boy – Save Rock And Roll (2013) [FLAC CD]\11. Fall Out Boy – Save Rock And Roll (Feat. Elton John).wav

Pre-gap length 0:00:00.90

Peak level 98.8 %
Extraction speed 2.7 X
Track quality 100.0 %
Test CRC 74A5FA1C
Copy CRC 74A5FA1C
Track not present in AccurateRip database
Copy OK

None of the tracks are present in the AccurateRip database

No errors occurred

End of status report

==== Log checksum 9E2E442AE8E465A19D5A514076F5E234CC52D65E831FE0450ABFD6DF84B879C7 ====

REM GENRE Rock
REM DATE 2013
REM DISCID 9609C50B
REM COMMENT “ExactAudioCopy v1.0b3”
CATALOG 0602537352111
PERFORMER “Fall Out Boy”
TITLE “Save Rock And Roll”
FILE “01. Fall Out Boy – The Phoenix.wav” WAVE
TRACK 01 AUDIO
TITLE “The Phoenix”
PERFORMER “Fall Out Boy”
ISRC USUM71302620
INDEX 01 00:00:00
FILE “02. Fall Out Boy – My Songs Know What You Did In The Dark (Light Em Up).wav” WAVE
TRACK 02 AUDIO
TITLE “My Songs Know What You Did In The Dark (Light Em Up)”
PERFORMER “Fall Out Boy”
ISRC USUM71300299
INDEX 01 00:00:00
FILE “03. Fall Out Boy – Alone Together.wav” WAVE
TRACK 03 AUDIO
TITLE “Alone Together”
PERFORMER “Fall Out Boy”
ISRC USUM71302625
INDEX 01 00:00:00
FILE “04. Fall Out Boy – Where Did The Party Go.wav” WAVE
TRACK 04 AUDIO
TITLE “Where Did The Party Go”
PERFORMER “Fall Out Boy”
ISRC USUM71302626
INDEX 01 00:00:00
FILE “05. Fall Out Boy – Just One Yesterday.wav” WAVE
TRACK 05 AUDIO
TITLE “Just One Yesterday”
PERFORMER “Fall Out Boy”
ISRC USUM71302630
INDEX 01 00:00:00
FILE “06. Fall Out Boy – The Mighty Fall (Feat. Big Sean).wav” WAVE
TRACK 06 AUDIO
TITLE “The Mighty Fall (Feat. Big Sean)”
PERFORMER “Fall Out Boy”
ISRC USUM71302619
INDEX 01 00:00:00
TRACK 07 AUDIO
TITLE “Miss Missing You”
PERFORMER “Fall Out Boy”
ISRC USUM71302624
INDEX 00 03:32:35
FILE “07. Fall Out Boy – Miss Missing You.wav” WAVE
INDEX 01 00:00:00
FILE “08. Fall Out Boy – Death Valley.wav” WAVE
TRACK 08 AUDIO
TITLE “Death Valley”
PERFORMER “Fall Out Boy”
ISRC USUM71302627
INDEX 01 00:00:00
FILE “09. Fall Out Boy – Young Volcanoes.wav” WAVE
TRACK 09 AUDIO
TITLE “Young Volcanoes”
PERFORMER “Fall Out Boy”
ISRC USUM71302628
INDEX 01 00:00:00
FILE “10. Fall Out Boy – Rat A Tat (Feat. Courtney Love).wav” WAVE
TRACK 10 AUDIO
TITLE “Rat A Tat (Feat. Courtney Love)”
PERFORMER “Fall Out Boy”
ISRC USUM71302623
INDEX 01 00:00:00
TRACK 11 AUDIO
TITLE “Save Rock And Roll (Feat. Elton John)”
PERFORMER “Fall Out Boy”
ISRC USUM71302621
INDEX 00 04:01:45
FILE “11. Fall Out Boy – Save Rock And Roll (Feat. Elton John).wav” WAVE
INDEX 01 00:00:00

Leave a Reply

Your email address will not be published. Required fields are marked *

This site uses Akismet to reduce spam. Learn how your comment data is processed.