Faith No More – We Care A Lot (Japanese Edition)




Artist: Faith No More
Year: 1985/1996
Genre: Alternative
Notes: Discogs
Add. Notes: Japanese Edition
Encoder: FLAC
Bitrate: ~1000 kBit/s (44.1 kHz/16 Bit/s)
Bin/Cue incl.: Yes
Size: 273,06 MB
Password: “slam” (without ” “)


http://www.share-online.biz/dl/T66EKRRPPOA5
https://rapidgator.net/file/542cb36ee92a7068beeaf9994d42d89c
https://uploadbyte.com/yi935bf8hoxz
https://uploadever.com/ke6g7yhzndnb

Tracklist:

1 - We Care A Lot - 4:09
2 - The Jungle - 3:10
3 - Mark Bowen - 3:33
4 - Jim - 1:16
5 - Why Do You Bother - 5:40
6 - Greed - 3:50
7 - Pills For Breakfast - 2:59
8 - As The Worm Turns - 3:11
9 - Arabian Disco - 3:16
10 - New Beginnings - 3:46

EAC-Log, CUE-Sheed & NFO:

Click to open spoiler
Exact Audio Copy V1.0 beta 3 from 29. August 2011

EAC extraction logfile from 23. August 2014, 13:34

Faith No More / We Care A Lot [Polydor, POCD-1236, Japan]

Used drive : PIONEER DVD-RW DVR-220L Adapter: 5 ID: 0

Read mode : Secure
Utilize accurate stream : Yes
Defeat audio cache : Yes
Make use of C2 pointers : No

Read offset correction : 6
Overread into Lead-In and Lead-Out : No
Fill up missing offset samples with silence : Yes
Delete leading and trailing silent blocks : No
Null samples used in CRC calculations : Yes
Used interface : Installed external ASPI interface

Used output format : User Defined Encoder
Selected bitrate : 1024 kBit/s
Quality : High
Add ID3 tag : No
Command line compressor : C:\Program Files\Exact Audio Copy\FLAC\FLAC.EXE
Additional command line options : -V -8 -T “Date=%year%” -T “Genre=%genre%” %source%

TOC of the extracted CD

Track | Start | Length | Start sector | End sector
———————————————————
1 | 0:00.00 | 4:09.00 | 0 | 18674
2 | 4:09.00 | 3:10.47 | 18675 | 32971
3 | 7:19.47 | 3:33.15 | 32972 | 48961
4 | 10:52.62 | 1:15.38 | 48962 | 54624
5 | 12:08.25 | 5:40.47 | 54625 | 80171
6 | 17:48.72 | 3:50.00 | 80172 | 97421
7 | 21:38.72 | 2:58.60 | 97422 | 110831
8 | 24:37.57 | 3:11.48 | 110832 | 125204
9 | 27:49.30 | 3:18.30 | 125205 | 140084
10 | 31:07.60 | 3:45.02 | 140085 | 156961

Range status and errors

Selected range

Filename C:\CDRip by Deminbek\Faith No More – We Care A Lot [Polydor, POCD-1236, Japan].wav

Peak level 100.0 %
Extraction speed 6.3 X
Range quality 100.0 %
Test CRC 6533D416
Copy CRC 6533D416
Copy OK

No errors occurred

AccurateRip summary

Track 1 cannot be verified as accurate (confidence 10) [26DB9E0A], AccurateRip returned [B9ED741E] (AR v2)
Track 2 cannot be verified as accurate (confidence 10) [821BCDC8], AccurateRip returned [B0C447D1] (AR v2)
Track 3 cannot be verified as accurate (confidence 10) [ECACCFBF], AccurateRip returned [E7C3F234] (AR v2)
Track 4 cannot be verified as accurate (confidence 10) [BDA78F8F], AccurateRip returned [FA9551AF] (AR v2)
Track 5 cannot be verified as accurate (confidence 10) [B3C3D72E], AccurateRip returned [7B423ABE] (AR v2)
Track 6 cannot be verified as accurate (confidence 10) [E5E4E640], AccurateRip returned [7825D9DF] (AR v2)
Track 7 cannot be verified as accurate (confidence 10) [19A51196], AccurateRip returned [2783788A] (AR v2)
Track 8 cannot be verified as accurate (confidence 10) [A11D5E1E], AccurateRip returned [A12806D3] (AR v2)
Track 9 cannot be verified as accurate (confidence 10) [82626996], AccurateRip returned [73C944D2] (AR v2)
Track 10 cannot be verified as accurate (confidence 10) [13066924], AccurateRip returned [9B34DB10] (AR v2)

No tracks could be verified as accurate
You may have a different pressing from the one(s) in the database

End of status report

—- CUETools DB Plugin V2.1.4

[CTDB TOCID: iURV86IraeLC3hftFBPyCCu5ni8-] found
Submit result: iURV86IraeLC3hftFBPyCCu5ni8- has been confirmed
Track | CTDB Status
1 | (12/19) Accurately ripped
2 | (12/19) Accurately ripped
3 | (12/19) Accurately ripped
4 | (12/19) Accurately ripped
5 | (12/19) Accurately ripped
6 | (12/19) Accurately ripped
7 | (12/19) Accurately ripped
8 | (12/19) Accurately ripped
9 | ( 2/19) Accurately ripped, or (10/19) differs in 1361 samples @02:51:00-02:51:01
10 | (12/19) Accurately ripped
If you are sure that your rip contains errors, you can use CUETools to repair it.

==== Log checksum F372FC6877AE85D0CCB45B60DE3C55EB81F3A80BBC2EB956E06DE62B36D73090 ====

REM GENRE Alternative
REM DATE 1996
REM DISCID 74082C0A
REM COMMENT “ExactAudioCopy v1.0b3”
CATALOG 4988005190710
PERFORMER “Faith No More”
TITLE “We Care A Lot [Polydor, POCD-1236, Japan]”
FILE “Faith No More – We Care A Lot [Polydor, POCD-1236, Japan].flac” WAVE
TRACK 01 AUDIO
TITLE “We Care a Lot”
PERFORMER “Faith No More”
ISRC GBAAP9600252
INDEX 01 00:00:00
TRACK 02 AUDIO
TITLE “The Jungle”
PERFORMER “Faith No More”
ISRC GBAAP9600253
INDEX 00 04:08:30
INDEX 01 04:09:00
TRACK 03 AUDIO
TITLE “Mark Bowen”
PERFORMER “Faith No More”
ISRC GBAAP9600254
INDEX 00 07:16:02
INDEX 01 07:19:47
TRACK 04 AUDIO
TITLE “Jim”
PERFORMER “Faith No More”
ISRC GBAAP9600255
INDEX 00 10:49:60
INDEX 01 10:52:62
TRACK 05 AUDIO
TITLE “Why Do You Bother”
PERFORMER “Faith No More”
ISRC GBAAP9600256
INDEX 00 12:07:65
INDEX 01 12:08:25
TRACK 06 AUDIO
TITLE “Greed”
PERFORMER “Faith No More”
ISRC GBAAP9600257
INDEX 00 17:46:67
INDEX 01 17:48:72
TRACK 07 AUDIO
TITLE “Pills for Breakfast”
PERFORMER “Faith No More”
ISRC GBAAP9600258
INDEX 01 21:38:72
TRACK 08 AUDIO
TITLE “As the Worm Turns”
PERFORMER “Faith No More”
ISRC GBAAP9600259
INDEX 00 24:36:62
INDEX 01 24:37:57
TRACK 09 AUDIO
TITLE “Arabian Disco”
PERFORMER “Faith No More”
ISRC GBAAP9600260
INDEX 00 27:48:17
INDEX 01 27:49:30
TRACK 10 AUDIO
TITLE “New Beginnings”
PERFORMER “Faith No More”
ISRC GBAAP9600261
INDEX 00 31:05:67
INDEX 01 31:07:60

Leave a Reply

Your email address will not be published. Required fields are marked *

Enter the text from the image below
 

This site uses Akismet to reduce spam. Learn how your comment data is processed.