Faith No More – We Care A Lot (Remastered Deluxe Edition)




No Cover available

Artist: Faith No More
Year: 2016
Genre: Rock
Notes: Discogs
Add. Notes: Remastered Deluxe Edition
Watch Songs on: YouTube
Cover incl.: Yes
Encoder: FLAC
Bitrate: ~1000 kBit/s (44.1 kHz/16 Bit/s)
Log & Cue incl.: Yes
Size: 519,2 MB
Password: “slam” (without ” “)


All Downloads/Hosters are compatible

Download 1
KatFile.com
Turbobit.net
FileFactory.com
Rapidgator.net
Download 2
KatFile.com
Turbobit.net
FileFactory.com
Rapidgator.net

Tracklist:

Original
1 - We Care A Lot - 4:09
2 - The Jungle - 3:08
3 - Mark Bowen - 3:31
4 - Jim - 1:10
5 - Why Do You Bother - 5:41
6 - Greed - 3:51
7 - Pills For Breakfast - 2:55
8 - As The Worm Turns - 3:10
9 - Arabian Disco - 3:16
10 - New Beginnings - 3:44
Bonus
11 - We Care A Lot (2016 Mix) - 4:10
12 - Pills For Breakfast (2016 Mix) - 2:43
13 - As The Worm Turns (2016 Mix) - 3:11
14 - Greed (Orig Demo) - 3:35
15 - Mark Bowen (Orig Demo) - 3:12
16 - Arabian Disco (Orig Demo) - 3:07
17 - Intro (Orig Demo) - 2:17
18 - The Jungle (I-Beam SF, 1986) - 2:35
19 - New Beginnings (I-Beam SF, 1986) - 3:43

EAC-Log, CUE-Sheed & NFO:

Click to open spoiler
Exact Audio Copy V1.1 from 23. June 2015

EAC extraction logfile from 9. December 2016, 17:43

Faith No More / We Care A Lot (Deluxe Band Edition)

Used drive : PIONEER DVD-RW DVR-219L Adapter: 1 ID: 1

Read mode : Secure
Utilize accurate stream : Yes
Defeat audio cache : Yes
Make use of C2 pointers : No

Read offset correction : 6
Overread into Lead-In and Lead-Out : No
Fill up missing offset samples with silence : Yes
Delete leading and trailing silent blocks : No
Null samples used in CRC calculations : Yes
Used interface : Native Win32 interface for Win NT & 2000

Used output format : Internal WAV Routines
Sample format : 44.100 Hz; 16 Bit; Stereo

TOC of the extracted CD

Track | Start | Length | Start sector | End sector
———————————————————
1 | 0:00.00 | 4:09.74 | 0 | 18748
2 | 4:09.74 | 3:08.00 | 18749 | 32848
3 | 7:17.74 | 3:31.02 | 32849 | 48675
4 | 10:49.01 | 1:10.46 | 48676 | 53971
5 | 11:59.47 | 5:41.00 | 53972 | 79546
6 | 17:40.47 | 3:51.68 | 79547 | 96939
7 | 21:32.40 | 2:55.38 | 96940 | 110102
8 | 24:28.03 | 3:10.15 | 110103 | 124367
9 | 27:38.18 | 3:16.69 | 124368 | 139136
10 | 30:55.12 | 3:44.36 | 139137 | 155972
11 | 34:39.48 | 4:10.01 | 155973 | 174723
12 | 38:49.49 | 2:43.73 | 174724 | 187021
13 | 41:33.47 | 3:11.32 | 187022 | 201378
14 | 44:45.04 | 3:35.07 | 201379 | 217510
15 | 48:20.11 | 3:12.22 | 217511 | 231932
16 | 51:32.33 | 3:07.08 | 231933 | 245965
17 | 54:39.41 | 2:17.46 | 245966 | 256286
18 | 56:57.12 | 2:35.04 | 256287 | 267915
19 | 59:32.16 | 3:43.41 | 267916 | 284681

Range status and errors

Selected range

Filename D:\.by necromandus for avaxhome\Faith No More – We Care A Lot (Deluxe Band Edition).wav

Peak level 97.6 %
Extraction speed 7.0 X
Range quality 99.9 %
Test CRC 89786E14
Copy CRC 89786E14
Copy OK

No errors occurred

AccurateRip summary

Track 1 accurately ripped (confidence 19) [555C55F0] (AR v2)
Track 2 accurately ripped (confidence 19) [1C18DC4A] (AR v2)
Track 3 accurately ripped (confidence 19) [1D56B02F] (AR v2)
Track 4 accurately ripped (confidence 19) [7AA6E875] (AR v2)
Track 5 accurately ripped (confidence 19) [9BD0C7C4] (AR v2)
Track 6 accurately ripped (confidence 19) [E839BE86] (AR v2)
Track 7 accurately ripped (confidence 19) [39155262] (AR v2)
Track 8 accurately ripped (confidence 19) [C90833A7] (AR v2)
Track 9 accurately ripped (confidence 19) [E0B44A60] (AR v2)
Track 10 accurately ripped (confidence 19) [05F0B914] (AR v2)
Track 11 accurately ripped (confidence 19) [B2693B88] (AR v2)
Track 12 accurately ripped (confidence 19) [B0B79D09] (AR v2)
Track 13 accurately ripped (confidence 19) [448A5F58] (AR v2)
Track 14 accurately ripped (confidence 19) [6C61E836] (AR v2)
Track 15 accurately ripped (confidence 19) [386131A7] (AR v2)
Track 16 accurately ripped (confidence 19) [AAE6EC1B] (AR v2)
Track 17 accurately ripped (confidence 19) [B4B9F27A] (AR v2)
Track 18 accurately ripped (confidence 19) [DCD83B29] (AR v2)
Track 19 accurately ripped (confidence 19) [8B69A4C6] (AR v2)

All tracks accurately ripped

End of status report

—- CUETools DB Plugin V2.1.6

[CTDB TOCID: MRbnBbedrYXb_SNEt1KMaA8BxvY-] found
Submit result: MRbnBbedrYXb_SNEt1KMaA8BxvY- has been confirmed
Track | CTDB Status
1 | (47/47) Accurately ripped
2 | (47/47) Accurately ripped
3 | (47/47) Accurately ripped
4 | (47/47) Accurately ripped
5 | (47/47) Accurately ripped
6 | (47/47) Accurately ripped
7 | (47/47) Accurately ripped
8 | (47/47) Accurately ripped
9 | (47/47) Accurately ripped
10 | (47/47) Accurately ripped
11 | (47/47) Accurately ripped
12 | (47/47) Accurately ripped
13 | (47/47) Accurately ripped
14 | (47/47) Accurately ripped
15 | (47/47) Accurately ripped
16 | (47/47) Accurately ripped
17 | (47/47) Accurately ripped
18 | (47/47) Accurately ripped
19 | (45/47) Accurately ripped

==== Log checksum 4E4B721DA409F89BB1D340183DF47901FB1846A784ABB7BAE7380CFE5A786553 ====

REM GENRE Rock
REM DATE 2016
REM DISCID 060ED313
REM COMMENT “ExactAudioCopy v1.1”
CATALOG 5414939938177
PERFORMER “Faith No More”
TITLE “We Care A Lot (Deluxe Band Edition)”
FILE “Faith No More – We Care A Lot (Deluxe Band Edition).flac” WAVE
TRACK 01 AUDIO
TITLE “We Care A Lot”
PERFORMER “Faith No More”
ISRC GBPVV1601297
INDEX 01 00:00:00
TRACK 02 AUDIO
TITLE “The Jungle”
PERFORMER “Faith No More”
ISRC GBPVV1601298
INDEX 00 04:09:00
INDEX 01 04:09:74
TRACK 03 AUDIO
TITLE “Mark Bowen”
PERFORMER “Faith No More”
ISRC GBPVV1601299
INDEX 00 07:17:00
INDEX 01 07:17:74
TRACK 04 AUDIO
TITLE “Jim”
PERFORMER “Faith No More”
ISRC GBPVV1601300
INDEX 00 10:48:01
INDEX 01 10:49:01
TRACK 05 AUDIO
TITLE “Why Do You Bother”
PERFORMER “Faith No More”
ISRC GBPVV1601301
INDEX 00 11:58:47
INDEX 01 11:59:47
TRACK 06 AUDIO
TITLE “Greed”
PERFORMER “Faith No More”
ISRC GBPVV1601302
INDEX 00 17:38:48
INDEX 01 17:40:47
TRACK 07 AUDIO
TITLE “Pills For Breakfast”
PERFORMER “Faith No More”
ISRC GBPVV1601303
INDEX 00 21:30:41
INDEX 01 21:32:40
TRACK 08 AUDIO
TITLE “As The Worm Turns”
PERFORMER “Faith No More”
ISRC GBPVV1601304
INDEX 00 24:27:03
INDEX 01 24:28:03
TRACK 09 AUDIO
TITLE “Arabian Disco”
PERFORMER “Faith No More”
ISRC GBPVV1601305
INDEX 00 27:37:19
INDEX 01 27:38:18
TRACK 10 AUDIO
TITLE “New Beginnings”
PERFORMER “Faith No More”
ISRC GBPVV1601306
INDEX 00 30:54:13
INDEX 01 30:55:12
TRACK 11 AUDIO
TITLE “We Care A Lot (2016 Mix)”
PERFORMER “Faith No More”
ISRC GBPVV1601307
INDEX 00 34:38:49
INDEX 01 34:39:48
TRACK 12 AUDIO
TITLE “Pills For Breakfast (2016 Mix)”
PERFORMER “Faith No More”
ISRC GBPVV1601308
INDEX 00 38:47:49
INDEX 01 38:49:49
TRACK 13 AUDIO
TITLE “As The Worm Turns (2016 Mix)”
PERFORMER “Faith No More”
ISRC GBPVV1601309
INDEX 00 41:31:48
INDEX 01 41:33:47
TRACK 14 AUDIO
TITLE “Greed (Original Demo)”
PERFORMER “Faith No More”
ISRC GBPVV1601310
INDEX 00 44:44:05
INDEX 01 44:45:04
TRACK 15 AUDIO
TITLE “Mark Bowen (Original Demo)”
PERFORMER “Faith No More”
ISRC GBPVV1601311
INDEX 00 48:19:12
INDEX 01 48:20:11
TRACK 16 AUDIO
TITLE “Arabian Disco (Original Demo)”
PERFORMER “Faith No More”
ISRC GBPVV1601312
INDEX 00 51:31:34
INDEX 01 51:32:33
TRACK 17 AUDIO
TITLE “Intro (Original Demo)”
PERFORMER “Faith No More”
ISRC GBPVV1601313
INDEX 00 54:38:43
INDEX 01 54:39:41
TRACK 18 AUDIO
TITLE “The Jungle (I-Beam SF, 1986)”
PERFORMER “Faith No More”
ISRC GBPVV1601314
INDEX 00 56:56:13
INDEX 01 56:57:12
TRACK 19 AUDIO
TITLE “New Beginnings (I-Beam SF, 1986)”
PERFORMER “Faith No More”
ISRC GBPVV1601315
INDEX 01 59:32:16


Leave a Reply

Your email address will not be published. Required fields are marked *

This site uses Akismet to reduce spam. Learn how your comment data is processed.