Faith No More – The Real Thing (Remastered Deluxe Edition)




Artist: Faith No More
Year: 1989/2015
Genre: Metal
Notes: Discogs
Add. Notes: Remastered Deluxe Edition
Encoder: FLAC
Bitrate: ~1100 kBit/s (44.1 kHz/16 Bit/s)
Bin/Cue incl.: Yes
Size: 977,63 MB
Password: “slam” (without ” “)


http://www.share-online.biz/dl/Z24XJURPQ9
http://www.share-online.biz/dl/PPCXJURPMGUD
https://rapidgator.net/file/60a862140a40f58b50d256f2fe1e62d6
https://rapidgator.net/file/a5e0cc40bfe9c56266bb6daaadeb80d5
https://uploadbyte.com/5v9jkydwwxyg
https://uploadbyte.com/ywe97h77la9g
https://justupload.io/05nmnhleotkx
https://justupload.io/4ev2g1htcp2n
https://uploadever.com/3mn0da81mapw
https://uploadever.com/5p86gc9lqwkj

Tracklist:

Original Album
1-1 - From Out Of Nowhere - 3:23
1-2 - Epic - 4:54
1-3 - Falling To Pieces - 5:16
1-4 - Surprise! You're Dead! - 2:27
1-5 - Zombie Eaters - 6:01
1-6 - The Real Thing - 8:13
1-7 - Underwater Love - 3:52
1-8 - The Morning After - 3:43
1-9 - Woodpecker From Mars - 5:41
1-10 - War Pigs - 7:44
1-11 - Edge Of The World - 4:12
Bonus Tracks
2-1 - Sweet Emotion (Kerrang! Flexi Disc) - 4:52
2-2 - Epic (Radio Remix Edit) - 4:00
2-3 - Falling To Pieces (Matt Wallace Remix) - 4:31
2-4 - Cowboy Song (B-Side) - 5:14
2-5 - The Grade (B-Side) - 2:05
2-6 - From Out Of Nowhere (Extended Remix) - 4:17
2-7 - War Pigs (Live In Berlin 1989) - 7:59
2-8 - Surprise! You're Dead! (Live In Sheffield 1990) - 
2:52
2-9 - Chinese Arithmetic (Live In Sheffield 1990) - 4:16
2-10 - Underwater Love (Live At Brixton Academy 1990) - 
3:33
2-11 - As The Worm Turns (Live At Brixton Academy 
1990) - 2:45

EAC-Log, CUE-Sheed & NFO:

Click to open spoiler
Exact Audio Copy V1.0 beta 3 from 29. August 2011

EAC extraction logfile from 20. June 2015, 20:01

Faith No More / The Real Thing (Deluxe Edition CD1)

Used drive : PIONEER BD-RW BDR-208D Adapter: 3 ID: 1

Read mode : Secure
Utilize accurate stream : Yes
Defeat audio cache : Yes
Make use of C2 pointers : No

Read offset correction : 667
Overread into Lead-In and Lead-Out : No
Fill up missing offset samples with silence : Yes
Delete leading and trailing silent blocks : No
Null samples used in CRC calculations : Yes
Used interface : Native Win32 interface for Win NT & 2000

Used output format : User Defined Encoder
Selected bitrate : 768 kBit/s
Quality : High
Add ID3 tag : No
Command line compressor : C:\Program Files\Exact Audio Copy\FLAC\FLAC.EXE
Additional command line options : -6 -V -T “ARTIST=%artist%” -T “TITLE=%title%” -T “ALBUM=%albumtitle%” -T “DATE=%year%” -T “TRACKNUMBER=%tracknr%” -T “GENRE=%genre%” -T “COMMENT=%comment%” -T “BAND=%albuminterpret%” -T “ALBUMARTIST=%albuminterpret%” -T “COMPOSER=%composer%” %haslyrics%–tag-from-file=LYRICS=”%lyricsfile%”%haslyrics% -T “DISCNUMBER=%cdnumber%” -T “TOTALDISCS=%totalcds%” -T “TOTALTRACKS=%numtracks%” %hascover%–picture=”%coverfile%”%hascover% %source% -o %dest%

TOC of the extracted CD

Track | Start | Length | Start sector | End sector
———————————————————
1 | 0:00.00 | 3:23.10 | 0 | 15234
2 | 3:23.10 | 4:53.74 | 15235 | 37283
3 | 8:17.09 | 5:15.48 | 37284 | 60956
4 | 13:32.57 | 2:27.24 | 60957 | 72005
5 | 16:00.06 | 6:00.69 | 72006 | 99074
6 | 22:01.00 | 8:13.10 | 99075 | 136059
7 | 30:14.10 | 3:52.32 | 136060 | 153491
8 | 34:06.42 | 3:43.31 | 153492 | 170247
9 | 37:49.73 | 5:40.53 | 170248 | 195800
10 | 43:30.51 | 7:44.25 | 195801 | 230625
11 | 51:15.01 | 4:12.24 | 230626 | 249549

Range status and errors

Selected range

Filename E:\For torrents\2015 – The Real Thing [2CD deluxe edition, Slash, Rhino 0825646120970]\CD1 – Original album\Faith No More – The Real Thing (Deluxe Edition CD1).wav

Peak level 98.0 %
Extraction speed 7.0 X
Range quality 99.9 %
Test CRC 5CCF447E
Copy CRC 5CCF447E
Copy OK

No errors occurred

AccurateRip summary

Track 1 not present in database
Track 2 not present in database
Track 3 not present in database
Track 4 not present in database
Track 5 not present in database
Track 6 not present in database
Track 7 not present in database
Track 8 not present in database
Track 9 not present in database
Track 10 not present in database
Track 11 not present in database

None of the tracks are present in the AccurateRip database

End of status report

==== Log checksum 8DB4610BAEA4212498A09456276DA517FFBE93C5BE03833C5AE5AB199272556F ====

REM DATE 2015
REM DISCID 7C0AE00B
REM COMMENT “ExactAudioCopy v1.0b3”
PERFORMER “Faith No More”
TITLE “The Real Thing (CD2 Deluxe Edition)”
FILE “Faith No More – The Real Thing (CD2 Deluxe Edition).flac” WAVE
TRACK 01 AUDIO
TITLE “Sweet Emotion”
PERFORMER “Faith No More”
INDEX 01 00:00:00
TRACK 02 AUDIO
TITLE “Epic (Radio Remix Edit)”
PERFORMER “Faith No More”
INDEX 00 04:51:12
INDEX 01 04:51:40
TRACK 03 AUDIO
TITLE “Falling To Pieces (Matt Wallace Remix)”
PERFORMER “Faith No More”
INDEX 00 08:49:16
INDEX 01 08:51:28
TRACK 04 AUDIO
TITLE “Cowboy Song”
PERFORMER “Faith No More”
INDEX 00 13:22:04
INDEX 01 13:22:52
TRACK 05 AUDIO
TITLE “The Grade”
PERFORMER “Faith No More”
INDEX 00 18:35:58
INDEX 01 18:37:04
TRACK 06 AUDIO
TITLE “From Out Of Nowhere (Extended Remix)”
PERFORMER “Faith No More”
INDEX 00 20:41:12
INDEX 01 20:42:14
TRACK 07 AUDIO
TITLE “War Pigs (Live in Berlin 1989)”
PERFORMER “Faith No More”
INDEX 00 24:58:71
INDEX 01 24:59:39
TRACK 08 AUDIO
TITLE “Surprise! You’re Dead! (Live in Sheffield 1990)”
PERFORMER “Faith No More”
INDEX 00 32:58:52
INDEX 01 32:58:59
TRACK 09 AUDIO
TITLE “Chinese Arithmetic (Live in Sheffield 1990)”
PERFORMER “Faith No More”
INDEX 00 35:50:16
INDEX 01 35:51:13
TRACK 10 AUDIO
TITLE “Underwater Love (Live in Brixton 1990)”
PERFORMER “Faith No More”
INDEX 00 40:05:73
INDEX 01 40:07:05
TRACK 11 AUDIO
TITLE “As The Worm Turns (Live in Brixton 1990)”
PERFORMER “Faith No More”
INDEX 00 43:39:24
INDEX 01 43:39:58

Leave a Reply

Your email address will not be published. Required fields are marked *

This site uses Akismet to reduce spam. Learn how your comment data is processed.