Faith No More – The Real Thing (Japanese Edition)




Artist: Faith No More
Year: 1989
Genre: Rock
Notes: Discogs
Add. Notes: Japanese Edition
Cover incl.: Yes
Encoder: FLAC
Bitrate: ~1000 kBit/s (44.1 kHz/16 Bit/s)
Log & Cue incl.: Yes
Size: 409,05 MB
Password: “slam” (without ” “)


All Downloads/Hosters are compatible

Download 1
Turbobit.net
Rapidgator.net
UploadEver.com
KatFile.com
UsersDrive.com
Download 2
Turbobit.net
Rapidgator.net
UploadEver.com
KatFile.com
UsersDrive.com
Download 3
Turbobit.net
Rapidgator.net
UploadEver.com
KatFile.com
UsersDrive.com

Tracklist:

1. From Out Of Nowhere 3:20
2. Epic 4:51
3. Falling To Pieces 5:12
4. Surprise! You're Dead! 2:25
5. Zombie Eaters 5:58
6. The Real Thing 8:11
7. Underwater Love 3:49
8. The Morning After 3:41
9. Woodpecker From Mars 5:38
10. War Pigs 7:43
11. Edge Of The World 4:10

EAC-Log, CUE-Sheed & NFO:

Click to open spoiler
Exact Audio Copy V1.0 beta 3 from 29. August 2011

EAC extraction logfile from 29. April 2014, 16:20

Faith No More / The Real Thing [London, POOL 20109, Japan]

Used drive : PIONEER DVD-RW DVR-112D Adapter: 1 ID: 0

Read mode : Secure
Utilize accurate stream : Yes
Defeat audio cache : Yes
Make use of C2 pointers : No

Read offset correction : 48
Overread into Lead-In and Lead-Out : No
Fill up missing offset samples with silence : Yes
Delete leading and trailing silent blocks : No
Null samples used in CRC calculations : Yes
Used interface : Installed external ASPI interface

Used output format : User Defined Encoder
Selected bitrate : 1024 kBit/s
Quality : High
Add ID3 tag : No
Command line compressor : C:\Program Files\Exact Audio Copy\FLAC\FLAC.EXE
Additional command line options : -V -8 -T “Date=%year%” -T “Genre=%genre%” %source%

TOC of the extracted CD

Track | Start | Length | Start sector | End sector
———————————————————
1 | 0:00.00 | 3:22.30 | 0 | 15179
2 | 3:22.30 | 4:53.70 | 15180 | 37224
3 | 8:16.25 | 5:15.67 | 37225 | 60916
4 | 13:32.17 | 2:27.18 | 60917 | 71959
5 | 15:59.35 | 5:58.65 | 71960 | 98874
6 | 21:58.25 | 8:13.50 | 98875 | 135899
7 | 30:12.00 | 3:51.67 | 135900 | 153291
8 | 34:03.67 | 3:43.43 | 153292 | 170059
9 | 37:47.35 | 5:40.45 | 170060 | 195604
10 | 43:28.05 | 7:43.35 | 195605 | 230364
11 | 51:11.40 | 4:12.52 | 230365 | 249316

Range status and errors

Selected range

Filename C:\CDRip by Deminbek\Faith No More – The Real Thing [London, POOL 20109, Japan].wav

Peak level 100.0 %
Extraction speed 7.7 X
Range quality 100.0 %
Test CRC 1EFC99C8
Copy CRC 1EFC99C8
Copy OK

No errors occurred

AccurateRip summary

Track 1 accurately ripped (confidence 3) [8CE08317] (AR v2)
Track 2 accurately ripped (confidence 3) [02BC4D67] (AR v2)
Track 3 accurately ripped (confidence 3) [D3572B4C] (AR v2)
Track 4 accurately ripped (confidence 3) [FA11D8AC] (AR v2)
Track 5 accurately ripped (confidence 3) [75520F9A] (AR v2)
Track 6 accurately ripped (confidence 3) [5BC7BF6B] (AR v2)
Track 7 accurately ripped (confidence 3) [4BFD3CC7] (AR v2)
Track 8 accurately ripped (confidence 3) [23B029F0] (AR v2)
Track 9 accurately ripped (confidence 3) [55E0F250] (AR v2)
Track 10 accurately ripped (confidence 3) [01517B27] (AR v2)
Track 11 accurately ripped (confidence 3) [84274BFC] (AR v2)

All tracks accurately ripped

End of status report

—- CUETools DB Plugin V2.1.4

[CTDB TOCID: RAhMVj_O8g6HTXf3CmlJtCSdtwI-] found
Submit result: RAhMVj_O8g6HTXf3CmlJtCSdtwI- has been confirmed
Track | CTDB Status
1 | (2/2) Accurately ripped
2 | (2/2) Accurately ripped
3 | (2/2) Accurately ripped
4 | (2/2) Accurately ripped
5 | (2/2) Accurately ripped
6 | (2/2) Accurately ripped
7 | (2/2) Accurately ripped
8 | (2/2) Accurately ripped
9 | (2/2) Accurately ripped
10 | (2/2) Accurately ripped
11 | (2/2) Accurately ripped

==== Log checksum A083D527CDDA5F293D2B5D834D4BC50867664D20C31539C48C95C0F440776115 ====

REM GENRE “Heavy Metal”
REM DATE 1989
REM DISCID 820CFC0B
REM COMMENT “ExactAudioCopy v1.0b3”
CATALOG 0000000000000
PERFORMER “Faith No More”
TITLE “The Real Thing [London, POOL 20109, Japan]”
FILE “Faith No More – The Real Thing [London, POOL 20109, Japan].flac” WAVE
TRACK 01 AUDIO
TITLE “From Out Of Nowhere”
PERFORMER “Faith No More”
ISRC 000000000000
INDEX 01 00:00:00
TRACK 02 AUDIO
TITLE “Epic”
PERFORMER “Faith No More”
ISRC 000000000000
INDEX 00 03:20:70
INDEX 01 03:22:30
TRACK 03 AUDIO
TITLE “Falling To Pieces”
PERFORMER “Faith No More”
ISRC 000000000000
INDEX 00 08:14:65
INDEX 01 08:16:25
TRACK 04 AUDIO
TITLE “Surprise! You’re Dead!”
PERFORMER “Faith No More”
ISRC 000000000000
INDEX 00 13:30:11
INDEX 01 13:32:17
TRACK 05 AUDIO
TITLE “Zombie Eaters”
PERFORMER “Faith No More”
ISRC 000000000000
INDEX 00 15:58:25
INDEX 01 15:59:35
TRACK 06 AUDIO
TITLE “The Real Thing”
PERFORMER “Faith No More”
ISRC 000000000000
INDEX 01 21:58:25
TRACK 07 AUDIO
TITLE “Underwater Love”
PERFORMER “Faith No More”
ISRC 000000000000
INDEX 00 30:10:32
INDEX 01 30:12:00
TRACK 08 AUDIO
TITLE “The Morning After”
PERFORMER “Faith No More”
ISRC 000000000000
INDEX 00 34:02:45
INDEX 01 34:03:67
TRACK 09 AUDIO
TITLE “Woodpecker Fom Mars”
PERFORMER “Faith No More”
ISRC 000000000000
INDEX 00 37:45:70
INDEX 01 37:47:35
TRACK 10 AUDIO
TITLE “War Pigs”
PERFORMER “Faith No More”
ISRC 000000000000
INDEX 00 43:27:55
INDEX 01 43:28:05
TRACK 11 AUDIO
TITLE “Edge Of The World”
PERFORMER “Faith No More”
ISRC 000000000000
INDEX 01 51:11:40

Leave a Reply

Your email address will not be published. Required fields are marked *

This site uses Akismet to reduce spam. Learn how your comment data is processed.