Faith No More – Live At The Brixton Academy




Artist: Faith No More
Year: 1991
Genre: Rock
Notes: Discogs
Add. Notes:
Encoder: FLAC
Bitrate: ~900 kBit/s (44.1 kHz/16 Bit/s)
Bin/Cue incl.: Yes
Size: 386,14 MB
Password: “slam” (without ” “)


http://www.share-online.biz/dl/20GRDVRP7BW

https://rapidgator.net/file/ff2cdde0dd694d1f930aaeca38b39165

https://uploadbyte.com/nmdm4cnuxr4f

https://uploadever.com/nczwku0a3pli

https://justupload.io/lb28rkpd4ezr

Tracklist:

1 - Falling To Pieces - 4:47
2 - The Real Thing - 7:54
3 - Epic - 4:55
4 - War Pigs - 6:58
5 - From Out Of Nowhere - 3:25
6 - We Care A Lot - 3:50
7 - Zombie Eaters - 6:06
8 - Edge Of The World - 5:50
9 - The Grade - 2:05
10 - The Cowboy Song - 5:12

EAC-Log, CUE-Sheed & NFO:

Click to open spoiler
Exact Audio Copy V1.0 beta 3 from 29. August 2011

EAC extraction logfile from 23. August 2014, 14:11

Faith No More / Live At The Brixton Academy [Polydor, POCD-1043, Japan]

Used drive : PIONEER DVD-RW DVR-220L Adapter: 5 ID: 0

Read mode : Secure
Utilize accurate stream : Yes
Defeat audio cache : Yes
Make use of C2 pointers : No

Read offset correction : 6
Overread into Lead-In and Lead-Out : No
Fill up missing offset samples with silence : Yes
Delete leading and trailing silent blocks : No
Null samples used in CRC calculations : Yes
Used interface : Installed external ASPI interface

Used output format : User Defined Encoder
Selected bitrate : 1024 kBit/s
Quality : High
Add ID3 tag : No
Command line compressor : C:\Program Files\Exact Audio Copy\FLAC\FLAC.EXE
Additional command line options : -V -8 -T “Date=%year%” -T “Genre=%genre%” %source%

TOC of the extracted CD

Track | Start | Length | Start sector | End sector
———————————————————
1 | 0:00.00 | 4:48.40 | 0 | 21639
2 | 4:48.40 | 7:53.00 | 21640 | 57114
3 | 12:41.40 | 4:54.42 | 57115 | 79206
4 | 17:36.07 | 6:58.40 | 79207 | 110596
5 | 24:34.47 | 3:24.30 | 110597 | 125926
6 | 27:59.02 | 3:50.18 | 125927 | 143194
7 | 31:49.20 | 6:05.57 | 143195 | 170626
8 | 37:55.02 | 5:50.33 | 170627 | 196909
9 | 43:45.35 | 2:05.02 | 196910 | 206286
10 | 45:50.37 | 5:12.70 | 206287 | 229756

Range status and errors

Selected range

Filename C:\CDRip by Deminbek\Faith No More – Live At The Brixton Academy [Polydor, POCD-1043, Japan].wav

Peak level 90.8 %
Extraction speed 7.5 X
Range quality 100.0 %
Test CRC 30E38EDA
Copy CRC 30E38EDA
Copy OK

No errors occurred

AccurateRip summary

Track 1 accurately ripped (confidence 1) [DD8000FB] (AR v2)
Track 2 accurately ripped (confidence 1) [EEA7B0C3] (AR v2)
Track 3 accurately ripped (confidence 1) [AE2AF4C1] (AR v2)
Track 4 accurately ripped (confidence 1) [AE99B4DD] (AR v2)
Track 5 accurately ripped (confidence 1) [0CC39A3E] (AR v2)
Track 6 accurately ripped (confidence 1) [175B2DD7] (AR v2)
Track 7 accurately ripped (confidence 1) [D302A515] (AR v2)
Track 8 accurately ripped (confidence 1) [6D57D093] (AR v2)
Track 9 accurately ripped (confidence 1) [651FA302] (AR v2)
Track 10 accurately ripped (confidence 1) [6B27D70E] (AR v2)

All tracks accurately ripped

End of status report

—- CUETools DB Plugin V2.1.4

[CTDB TOCID: GIQdKLUro.qp36.s3ODvjCboqZQ-] disk not present in database
Submit result: GIQdKLUro.qp36.s3ODvjCboqZQ- has been uploaded

==== Log checksum B391B448FB107B1FF19ADBCF0AFED86B8B57DBADFA636368E4ACAF3644E82A5B ====

REM GENRE Alternative
REM DATE 1990
REM DISCID 8C0BF70A
REM COMMENT “ExactAudioCopy v1.0b3”
CATALOG 4988005078063
PERFORMER “Faith No More”
TITLE “Live At The Brixton Academy [Polydor, POCD-1043, Japan]”
FILE “Faith No More – Live At The Brixton Academy [Polydor, POCD-1043, Japan].flac” WAVE
TRACK 01 AUDIO
TITLE “Falling To Pieces”
PERFORMER “Faith No More”
ISRC 000000000000
INDEX 01 00:00:00
TRACK 02 AUDIO
TITLE “The Real Thing”
PERFORMER “Faith No More”
ISRC 000000000000
INDEX 01 04:48:40
TRACK 03 AUDIO
TITLE “Epic”
PERFORMER “Faith No More”
ISRC 000000000000
INDEX 01 12:41:40
TRACK 04 AUDIO
TITLE “War Pigs”
PERFORMER “Faith No More”
ISRC 000000000000
INDEX 01 17:36:07
TRACK 05 AUDIO
TITLE “From Out Of Nowhere”
PERFORMER “Faith No More”
ISRC 000000000000
INDEX 01 24:34:47
TRACK 06 AUDIO
TITLE “We Care A Lot”
PERFORMER “Faith No More”
ISRC 000000000000
INDEX 01 27:59:02
TRACK 07 AUDIO
TITLE “Zombie Eaters”
PERFORMER “Faith No More”
ISRC 000000000000
INDEX 01 31:49:20
TRACK 08 AUDIO
TITLE “Edge Of The World”
PERFORMER “Faith No More”
ISRC 000000000000
INDEX 01 37:55:02
TRACK 09 AUDIO
TITLE “The Grade”
PERFORMER “Faith No More”
ISRC 000000000000
INDEX 00 43:44:52
INDEX 01 43:45:35
TRACK 10 AUDIO
TITLE “The Cowboy Song”
PERFORMER “Faith No More”
ISRC 000000000000
INDEX 00 45:49:25
INDEX 01 45:50:37

Leave a Reply

Your email address will not be published. Required fields are marked *

Enter the text from the image below
 

This site uses Akismet to reduce spam. Learn how your comment data is processed.