Faith No More – Introduce Yourself




Artist: Faith No More
Year: 1987
Genre: Alternative
Notes: Discogs
Add. Notes:
Encoder: FLAC
Bitrate: ~900 kBit/s (44.1 kHz/16 Bit/s)
Bin/Cue incl.: Yes
Size: 265,67 MB
Password: “slam” (without ” “)


http://www.share-online.biz/dl/0MO2ZSRPPS7
https://rapidgator.net/file/45d25c567dd11eb823dd6cd1395d6737
https://uploadbyte.com/lmfn2gm8ihhe
https://justupload.io/6w2sfc1kero3
https://uploadever.com/0evh8z4oagbn

Tracklist:

1 - Faster Disco - 4:17
2 - Anne's Song - 4:47
3 - Introduce Yourself - 1:30
4 - Chinese Arithmetic - 4:36
5 - Death March - 2:59
6 - We Care A Lot - 4:01
7 - R n' R - 3:11
8 - The Crab Song - 5:52
9 - Blood - 3:39
10 - Spirit - 2:50

EAC-Log, CUE-Sheed & NFO:

Click to open spoiler
Exact Audio Copy V1.0 beta 3 from 29. August 2011

EAC extraction logfile from 18. February 2012, 23:01

Faith No More / Introduce Yourself [Slash/Rhino, R2 79940, USA]

Used drive : PIONEER DVD-RW DVR-112D Adapter: 1 ID: 0

Read mode : Secure
Utilize accurate stream : Yes
Defeat audio cache : Yes
Make use of C2 pointers : No

Read offset correction : 48
Overread into Lead-In and Lead-Out : No
Fill up missing offset samples with silence : Yes
Delete leading and trailing silent blocks : No
Null samples used in CRC calculations : Yes
Used interface : Installed external ASPI interface

Used output format : User Defined Encoder
Selected bitrate : 1024 kBit/s
Quality : High
Add ID3 tag : No
Command line compressor : C:\Program Files\Exact Audio Copy\FLAC\FLAC.EXE
Additional command line options : -V -8 -T “Date=%year%” -T “Genre=%genre%” %source%

TOC of the extracted CD

Track | Start | Length | Start sector | End sector
———————————————————
1 | 0:00.32 | 4:16.30 | 32 | 19261
2 | 4:16.62 | 4:46.03 | 19262 | 40714
3 | 9:02.65 | 1:32.27 | 40715 | 47641
4 | 10:35.17 | 4:37.28 | 47642 | 68444
5 | 15:12.45 | 3:00.25 | 68445 | 81969
6 | 18:12.70 | 4:02.50 | 81970 | 100169
7 | 22:15.45 | 3:12.25 | 100170 | 114594
8 | 25:27.70 | 5:53.10 | 114595 | 141079
9 | 31:21.05 | 3:41.02 | 141080 | 157656
10 | 35:02.07 | 2:52.63 | 157657 | 170619

Range status and errors

Selected range

Filename C:\CDRip by Deminbek\Faith No More – Introduce Yourself [Slash,Rhino, R2 79940, USA].wav

Peak level 100.0 %
Extraction speed 6.8 X
Range quality 100.0 %
Test CRC B68B9A78
Copy CRC B68B9A78
Copy OK

No errors occurred

AccurateRip summary

Track 1 accurately ripped (confidence 3) [EFBDE5A0] (AR v1)
Track 2 accurately ripped (confidence 3) [A331C392] (AR v1)
Track 3 accurately ripped (confidence 3) [BD3E44E0] (AR v1)
Track 4 accurately ripped (confidence 3) [BC73622C] (AR v1)
Track 5 accurately ripped (confidence 3) [7872FA2B] (AR v1)
Track 6 accurately ripped (confidence 3) [07D379CE] (AR v1)
Track 7 accurately ripped (confidence 3) [0FD41787] (AR v1)
Track 8 accurately ripped (confidence 3) [05642577] (AR v1)
Track 9 accurately ripped (confidence 3) [AB7E399A] (AR v1)
Track 10 accurately ripped (confidence 3) [578C5376] (AR v1)

All tracks accurately ripped

End of status report

==== Log checksum A67657605F6A0F84A18CFB1F9F63E1FFE4486279B50D2272A3F67040745784A4 ====

REM GENRE Alternative
REM DATE 1987
REM DISCID 8408E20A
REM COMMENT “ExactAudioCopy v1.0b3”
CATALOG 0639842820127
PERFORMER “Faith No More”
TITLE “Introduce Yourself [Slash/Rhino, R2 79940, USA]”
FILE “Faith No More – Introduce Yourself [Slash,Rhino, R2 79940, USA].flac” WAVE
TRACK 01 AUDIO
TITLE “Faster Disco”
PERFORMER “Faith No More”
ISRC GBAAP0001070
INDEX 00 00:00:00
INDEX 01 00:00:32
TRACK 02 AUDIO
TITLE “Anne’s Song”
PERFORMER “Faith No More”
ISRC GBAAP0001071
INDEX 01 04:16:62
TRACK 03 AUDIO
TITLE “Introduce Yourself”
PERFORMER “Faith No More”
ISRC GBANC8700002
INDEX 01 09:02:65
TRACK 04 AUDIO
TITLE “Chinese Arithmetic”
PERFORMER “Faith No More”
ISRC GBAAP0001072
INDEX 01 10:35:17
TRACK 05 AUDIO
TITLE “Death March”
PERFORMER “Faith No More”
ISRC GBAAP0001073
INDEX 01 15:12:45
TRACK 06 AUDIO
TITLE “We Care a Lot”
PERFORMER “Faith No More”
ISRC GBAAP0001069
INDEX 00 18:11:62
INDEX 01 18:12:70
TRACK 07 AUDIO
TITLE “R N’ R”
PERFORMER “Faith No More”
ISRC GBAAP0001074
INDEX 01 22:15:45
TRACK 08 AUDIO
TITLE “The Crab Song”
PERFORMER “Faith No More”
ISRC GBAAP0001075
INDEX 01 25:27:70
TRACK 09 AUDIO
TITLE “Blood”
PERFORMER “Faith No More”
ISRC GBAAP0001076
INDEX 01 31:21:05
TRACK 10 AUDIO
TITLE “Spirit”
PERFORMER “Faith No More”
ISRC GBAAP0001077
INDEX 01 35:02:07

Leave a Reply

Your email address will not be published. Required fields are marked *

Enter the text from the image below
 

This site uses Akismet to reduce spam. Learn how your comment data is processed.