Faith No More – Angel Dust (Limited Edition)




No Cover available

Artist: Faith No More
Year: 1993
Genre: Rock
Notes: Discogs
Add. Notes: Limited Edition
Watch Songs on: YouTube
Cover incl.: Yes
Encoder: FLAC
Bitrate: ~1000 kBit/s (44.1 kHz/16 Bit/s)
Log & Cue incl.: Yes
Size: 539,2 MB
Password: “slam” (without ” “)


All Downloads/Hosters are compatible

Download 1
KatFile.com
Turbobit.net
FileFactory.com
Rapidgator.net
Download 2
KatFile.com
Turbobit.net
FileFactory.com
Rapidgator.net

Tracklist:

1-01 - Land Of Sunshine - 3:44
1-02 - Caffeine - 4:28
1-03 - Midlife Crisis - 4:22
1-04 - RV - 3:45
1-05 - Smaller And Smaller - 5:11
1-06 - Everything's Ruined - 4:34
1-07 - Malpractice - 4:03
1-08 - Kindergarten - 4:31
1-09 - Be Aggressive - 3:43
1-10 - A Small Victory - 4:57
1-11 - Crack Hitler - 4:39
1-12 - Jizzlobber - 6:39
1-13 - Midnight Cowboy - 4:14
1-14 - Easy - 3:08
Free Concert In The Park
2-01 - Easy (Live) - 3:06
2-02 - Be Aggressive (Live) - 4:12
2-03 - Kindergarten (Live) - 4:15
2-04 - Mark Bowen (Live) - 3:17

EAC-Log, CUE-Sheed & NFO:

Click to open spoiler
[CUETools log; Date: 26.04.2017 6:42:52; Version: 2.1.6]
[CTDB TOCID: hrpS6Kr2RysC_mWgAFguNBMeIiQ-] found.
Track | CTDB Status
1 | (51/51) Accurately ripped
2 | (51/51) Accurately ripped
3 | (49/51) Accurately ripped
4 | (51/51) Accurately ripped
5 | (50/51) Accurately ripped
6 | (49/51) Accurately ripped
7 | (50/51) Accurately ripped
8 | (50/51) Accurately ripped
9 | (50/51) Accurately ripped
10 | (49/51) Accurately ripped
11 | (51/51) Accurately ripped
12 | (49/51) Accurately ripped
13 | (50/51) Accurately ripped
14 | (48/51) Accurately ripped
[AccurateRip ID: 001f7537-01523e0c-dd0e850e] found.
Track [ CRC | V2 ] Status
01 [4f175d7b|f80cec14] (12+11/68) Accurately ripped
02 [7bcd8867|e1c0f8cb] (12+11/68) Accurately ripped
03 [312c2748|256b3277] (12+10/67) Accurately ripped
04 [beb5c800|989d3611] (12+10/67) Accurately ripped
05 [5370f006|a6f57584] (12+11/68) Accurately ripped
06 [eb3b7c87|6e5eee9d] (12+11/68) Accurately ripped
07 [36b7acfc|4b3ed059] (12+11/67) Accurately ripped
08 [0471c913|9497e46b] (12+11/68) Accurately ripped
09 [a224b820|5e2423d3] (12+11/68) Accurately ripped
10 [634a6ccd|36214d96] (12+11/68) Accurately ripped
11 [c30bd7b6|609fe2aa] (12+11/68) Accurately ripped
12 [86ea4c3c|36719991] (12+11/68) Accurately ripped
13 [48f28338|5a718141] (12+11/67) Accurately ripped
14 [f2ce66fd|c4690750] (12+11/66) Accurately ripped
Offsetted by -79:
01 [ec42af40] (04/68) Accurately ripped
02 [b3516ab8] (04/68) Accurately ripped
03 [e5d39f66] (04/67) Accurately ripped
04 [4a53c3e6] (04/67) Accurately ripped
05 [370f5df9] (04/68) Accurately ripped
06 [1fe4bd7a] (04/68) Accurately ripped
07 [65c0b598] (04/67) Accurately ripped
08 [4da12f86] (04/68) Accurately ripped
09 [a5072366] (04/68) Accurately ripped
10 [41c70c9e] (04/68) Accurately ripped
11 [a20a2c27] (04/68) Accurately ripped
12 [bfb6e63d] (04/68) Accurately ripped
13 [3043185a] (04/67) Accurately ripped
14 [d2b5dba9] (04/66) Accurately ripped
Offsetted by 27:
01 [300f0a72] (07/68) Accurately ripped
02 [58a07562] (07/68) Accurately ripped
03 [95748992] (07/67) Accurately ripped
04 [0a21cfe2] (07/67) Accurately ripped
05 [c198c3f7] (07/68) Accurately ripped
06 [7804e178] (07/68) Accurately ripped
07 [3a15cdb0] (07/67) Accurately ripped
08 [76c60a84] (07/68) Accurately ripped
09 [a1285922] (07/68) Accurately ripped
10 [8be8be48] (07/68) Accurately ripped
11 [f8741c11] (07/68) Accurately ripped
12 [de7085c7] (07/68) Accurately ripped
13 [005f12ae] (06/67) Accurately ripped
14 [dd5ee461] (05/66) Accurately ripped
Offsetted by 227:
01 [3739acda] (14/68) Accurately ripped
02 [cf52932a] (14/68) Accurately ripped
03 [abb2a402] (14/67) Accurately ripped
04 [f6717292] (14/67) Accurately ripped
05 [c228154f] (14/68) Accurately ripped
06 [06248ad0] (14/68) Accurately ripped
07 [8beb7d90] (14/67) Accurately ripped
08 [0806bfdc] (14/68) Accurately ripped
09 [99daeed2] (14/68) Accurately ripped
10 [0e1ea810] (14/68) Accurately ripped
11 [a9fd32d9] (14/68) Accurately ripped
12 [9fa81d0f] (14/68) Accurately ripped
13 [4f11723e] (14/67) Accurately ripped
14 [351b68c1] (14/66) Accurately ripped
Offsetted by -278:
01 [8521392d] (00/68) No match (V2 was not tested)
02 [a39da191] (00/68) No match (V2 was not tested)
03 [c055d474] (00/67) No match (V2 was not tested)
04 [14f52afc] (00/67) No match (V2 was not tested)
05 [4d8b0184] (00/68) No match (V2 was not tested)
06 [ff47cc05] (00/68) No match (V2 was not tested)
07 [307cbb14] (00/67) No match (V2 was not tested)
08 [0c768f91] (00/68) No match (V2 was not tested)
09 [ac4b34dc] (00/68) No match (V2 was not tested)
10 [6bbcecf7] (00/68) No match (V2 was not tested)
11 [b01ca620] (00/68) No match (V2 was not tested)
12 [1e2ef246] (00/68) No match (V2 was not tested)
13 [e85bda8c] (00/67) No match (V2 was not tested)
14 [4ac5cdb5] (00/66) No match (V2 was not tested)

Track Peak [ CRC32 ] [W/O NULL] [ LOG ]
— 100,0 [8034BFA0] [1B9AA19D] CRC32
01 97,2 [A582D2F1] [18BE642A]
02 97,2 [0866F7FF] [B6F5DFE3]
03 97,2 [F1F0CDC4] [16DCA9FC]
04 97,2 [5D663A6D] [E638A36E]
05 97,2 [B82462CA] [B6B61243]
06 97,2 [281BFC8E] [4C852093]
07 97,2 [1E57F814] [E745C53E]
08 100,0 [53BD8CB1] [8206BD65]
09 97,2 [572EC9A5] [5E46BD3A]
10 97,2 [93E0C97A] [CE02B95E]
11 97,2 [7ADBB2E6] [0D89F5D1]
12 100,0 [AAE40164] [C67D1560]
13 97,2 [1C54C0A4] [FC0A8200]
14 98,0 [FD81BA0A] [84C4A603]

REM GENRE Alternative
REM DATE 1993
REM DISCID DD0E850E
REM COMMENT “ExactAudioCopy v1.0b3”
PERFORMER “Faith No More”
TITLE “Angel Dust CD1 [Slash/Liberation, D30953, Australia]”
FILE “Faith No More – Angel Dust [Slash,Liberation, D30953, Australia].flac” WAVE
TRACK 01 AUDIO
TITLE “Land Of Sunshine”
PERFORMER “Faith No More”
INDEX 01 00:00:00
TRACK 02 AUDIO
TITLE “Caffeine”
PERFORMER “Faith No More”
INDEX 01 03:44:10
TRACK 03 AUDIO
TITLE “Mid Life Crisis”
PERFORMER “Faith No More”
INDEX 01 08:12:25
TRACK 04 AUDIO
TITLE “RV”
PERFORMER “Faith No More”
INDEX 01 12:34:52
TRACK 05 AUDIO
TITLE “Smaller And Smaller”
PERFORMER “Faith No More”
INDEX 01 16:19:17
TRACK 06 AUDIO
TITLE “Everything’s Ruined”
PERFORMER “Faith No More”
INDEX 01 21:30:27
TRACK 07 AUDIO
TITLE “Malpractice”
PERFORMER “Faith No More”
INDEX 01 26:04:17
TRACK 08 AUDIO
TITLE “Kindergarten”
PERFORMER “Faith No More”
INDEX 01 30:06:57
TRACK 09 AUDIO
TITLE “Be Aggressive”
PERFORMER “Faith No More”
INDEX 01 34:37:67
TRACK 10 AUDIO
TITLE “A Small Victory”
PERFORMER “Faith No More”
INDEX 01 38:20:30
TRACK 11 AUDIO
TITLE “Crack Hitler”
PERFORMER “Faith No More”
INDEX 01 43:17:65
TRACK 12 AUDIO
TITLE “Jizzlobber”
PERFORMER “Faith No More”
INDEX 01 47:57:17
TRACK 13 AUDIO
TITLE “Midnight Cowboy”
PERFORMER “Faith No More”
INDEX 01 54:35:72
TRACK 14 AUDIO
TITLE “Easy”
PERFORMER “Faith No More”
INDEX 01 58:49:37


Leave a Reply

Your email address will not be published. Required fields are marked *

Enter the text from the image below
 

This site uses Akismet to reduce spam. Learn how your comment data is processed.