Exilia – Nobody Excluded (Enhanced Edition)




Artist: Exilia
Year: 2006
Genre: Alternative
Notes: Discogs
Add. Notes:
Cover incl.: Yes
Encoder: FLAC
Bitrate: ~1100 kBit/s (44.1 kHz/16 Bit/s)
Log & Cue incl.: Yes
Size: 445,05 MB
Password: “slam” (without ” “)


All Downloads/Hosters are compatible

Download 1
Turbobit.net
Rapidgator.net
KatFile.com
UploadRar.com
Download 2
Turbobit.net
Rapidgator.net
KatFile.com
UploadRar.com
Download 3
Turbobit.net
Rapidgator.net
KatFile.com
UploadRar.com

Tracklist:

1 - Kill Me - 3:13
2 - Nobody - 3:42
3 - Destroy My Eyes - 3:17
4 - No Colours - 3:46
5 - Your Rain - 3:09
6 - Get Sick - 3:03
7 - Speed Of Light - 2:42
8 - Fly High Butterfly - 4:39
9 - My Prophecy - 3:35
10 - In A Coma - 3:33
11 - Cruel - 3:34
12 - Justify Yourself - 3:39
13 - Little Girl In A World - 3:19
14 - Nowhere - 2:46
Video - Kill Me - 3:13

EAC-Log, CUE-Sheed & NFO:

Click to open spoiler
Exact Audio Copy V0.99 prebeta 4 from 23. January 2008

Отчёт EAC об извлечении, выполненном 6. марта 2009, 8:13

Exilia / Nobody Excluded

Дисковод: Optiarc DVD RW AD-7173A Adapter: 0 ID: 0

Режим чтения : Достоверность
Использование точного потока : Да
Отключение кэша аудио : Да
Использование указателей C2 : Нет

Коррекция смещения при чтении : 48
Способность читать области Lead-in и Lead-out : Нет
Заполнение пропущенных сэмплов тишиной : Да
Удаление блоков с тишиной в начале и конце : Нет
При вычислениях CRC использовались нулевые сэмплы : Да
Интерфейс : Встроенный Win32-интерфейс для Win NT/2000

Выходной формат : Пользовательский кодировщик
Выбранный битрейт : 1024 kBit/s
Качество : Высокий
Добавление ID3-тэга : Нет
Утилита сжатия : C:\Program Files\Exact Audio Copy\Flac\flac.exe
Дополнительные параметры : -6 -V -T “ARTIST=%a” -T “TITLE=%t” -T “ALBUM=%g” -T “DATE=%y” -T “TRACKNUMBER=%n” -T “GENRE=%m” -T “COMMENT=%e” %s -o %d

TOC извлечённого CD

Трек | Старт | Длительность | Начальный сектор | Конечный сектор
———————————————————————
1 | 0:00.00 | 3:13.21 | 0 | 14495
2 | 3:13.21 | 3:43.47 | 14496 | 31267
3 | 6:56.68 | 3:18.63 | 31268 | 46180
4 | 10:15.56 | 3:46.01 | 46181 | 63131
5 | 14:01.57 | 3:10.27 | 63132 | 77408
6 | 17:12.09 | 3:04.31 | 77409 | 91239
7 | 20:16.40 | 2:43.53 | 91240 | 103517
8 | 23:00.18 | 4:40.33 | 103518 | 124550
9 | 27:40.51 | 3:34.47 | 124551 | 140647
10 | 31:15.23 | 3:33.12 | 140648 | 156634
11 | 34:48.35 | 3:34.05 | 156635 | 172689
12 | 38:22.40 | 3:39.34 | 172690 | 189148
13 | 42:01.74 | 3:21.15 | 189149 | 204238
14 | 45:23.14 | 2:48.56 | 204239 | 216894
15 | 50:43.70 | 7:31.18 | 228295 | 262137

Характеристики диапазона извлечения и сообщения об ошибках

Выбранный диапазон

Имя файла G:\СКАЧКА\FLAC\Exilia – Nobody Excluded.wav

Пиковый уровень 98.3 %
Качество диапазона 99.9 %
CRC теста 22D3F980
CRC копии 22D3F980
Копирование… OK

Ошибок не произошло

AccurateRip: сводка

Трек 1 нет в базе данных
Трек 2 нет в базе данных
Трек 3 нет в базе данных
Трек 4 нет в базе данных
Трек 5 нет в базе данных
Трек 6 нет в базе данных
Трек 7 нет в базе данных
Трек 8 нет в базе данных
Трек 9 нет в базе данных
Трек 10 нет в базе данных
Трек 11 нет в базе данных
Трек 12 нет в базе данных
Трек 13 нет в базе данных
Трек 14 нет в базе данных

Ни одного трека нет в базе AccurateRip

Конец отчёта

REM GENRE “nu metal”
REM DATE 2006
REM DISCID BF0DA70F
REM COMMENT “ExactAudioCopy v0.99pb4”
PERFORMER “Exilia”
TITLE “Nobody Excluded”
FILE “Exilia – Nobody Excluded.flac” WAVE
TRACK 01 AUDIO
TITLE “Kill Me”
PERFORMER “Exilia”
INDEX 01 00:00:00
TRACK 02 AUDIO
TITLE “Nobody”
PERFORMER “Exilia”
INDEX 00 03:13:20
INDEX 01 03:13:21
TRACK 03 AUDIO
TITLE “Destroy My Eyes”
PERFORMER “Exilia”
INDEX 00 06:56:65
INDEX 01 06:56:68
TRACK 04 AUDIO
TITLE “No Colours”
PERFORMER “Exilia”
INDEX 00 10:14:51
INDEX 01 10:15:56
TRACK 05 AUDIO
TITLE “Your Rain”
PERFORMER “Exilia”
INDEX 01 14:01:57
TRACK 06 AUDIO
TITLE “Get Sick”
PERFORMER “Exilia”
INDEX 00 17:11:44
INDEX 01 17:12:09
TRACK 07 AUDIO
TITLE “Speed Of Light”
PERFORMER “Exilia”
INDEX 00 20:15:64
INDEX 01 20:16:40
TRACK 08 AUDIO
TITLE “Fly High Butterfly”
PERFORMER “Exilia”
INDEX 00 22:59:72
INDEX 01 23:00:18
TRACK 09 AUDIO
TITLE “My Prophecy”
PERFORMER “Exilia”
INDEX 00 27:40:18
INDEX 01 27:40:51
TRACK 10 AUDIO
TITLE “In A Coma”
PERFORMER “Exilia”
INDEX 00 31:14:58
INDEX 01 31:15:23
TRACK 11 AUDIO
TITLE “Cruel”
PERFORMER “Exilia”
INDEX 01 34:48:35
TRACK 12 AUDIO
TITLE “Justify Yourself”
PERFORMER “Exilia”
INDEX 01 38:22:40
TRACK 13 AUDIO
TITLE “Little Girl In A World”
PERFORMER “Exilia”
INDEX 00 42:01:61
INDEX 01 42:01:74
TRACK 14 AUDIO
TITLE “Nowhere”
PERFORMER “Exilia”
INDEX 00 45:23:12
INDEX 01 45:23:14


Leave a Reply

Your email address will not be published. Required fields are marked *

Enter the text from the image below
 

This site uses Akismet to reduce spam. Learn how your comment data is processed.