Evanescence – The Open Door (Limited Edition)




No Cover available

Artist: Evanescence
Year: 2006
Genre: Rock
Notes: Discogs
Add. Notes: Limited Edition
Watch Songs on: YouTube
Cover incl.: No
Encoder: FLAC
Bitrate: ~1000 kBit/s (44.1 kHz/16 Bit/s)
Log & Cue incl.: Yes/Yes
Size: 444,1 MB
Password: “slam” (without ” “)


All Downloads/Hosters are compatible

Download 1
KatFile.com
Turbobit.net
FileFactory.com
Rapidgator.net
Download 2
KatFile.com
Turbobit.net
FileFactory.com
Rapidgator.net

Tracklist:

1 Sweet Sacrifice 
2 Call Me When You're Sober 
3 Weight Of The World 
4 Lithium 
5 Cloud Nine 
6 Snow White Queen 
7 Lacrymosa 
8 Like You 
9 Lose Control 
10 The Only One 
11 Your Star 
12 All That I'm Living For 
13 Good Enough 

Bonus Tracks:
14 Call Me When You're Sober (Acoustic Version) 
15 Going Under (Live Acoustic Version) 
16 Heart Shaped Box (Live Acoustic Version)

EAC-Log, CUE-Sheed & NFO:

Click to open spoiler
Exact Audio Copy V0.99 prebeta 5 from 4. May 2009

Отчёт EAC об извлечении, выполненном 9. июля 2009, 21:25

Evanescence / The open door

Дисковод: _NEC DVD_RW ND-3500AG Adapter: 0 ID: 1

Режим чтения : Достоверность
Использование точного потока : Да
Отключение кэша аудио : Да
Использование указателей C2 : Нет

Коррекция смещения при чтении : 48
Способность читать области Lead-in и Lead-out : Нет
Заполнение пропущенных сэмплов тишиной : Да
Удаление блоков с тишиной в начале и конце : Нет
При вычислениях CRC использовались нулевые сэмплы : Да
Интерфейс : Установленный внешний ASPI-интерфейс

Выходной формат : Внутренние WAV-операции
Формат сэмплов : 44.100 Гц; 16 бит; стерео

TOC извлечённого CD

Трек | Старт | Длительность | Начальный сектор | Конечный сектор
———————————————————————
1 | 0:00.00 | 3:05.55 | 0 | 13929
2 | 3:05.55 | 3:34.50 | 13930 | 30029
3 | 6:40.30 | 3:38.00 | 30030 | 46379
4 | 10:18.30 | 3:44.05 | 46380 | 63184
5 | 14:02.35 | 4:22.15 | 63185 | 82849
6 | 18:24.50 | 4:21.15 | 82850 | 102439
7 | 22:45.65 | 3:37.35 | 102440 | 118749
8 | 26:23.25 | 4:18.40 | 118750 | 138139
9 | 30:41.65 | 4:50.00 | 138140 | 159889
10 | 35:31.65 | 4:40.15 | 159890 | 180904
11 | 40:12.05 | 4:43.20 | 180905 | 202149
12 | 44:55.25 | 3:47.35 | 202150 | 219209
13 | 48:42.60 | 5:35.45 | 219210 | 244379
14 | 54:18.30 | 3:42.30 | 244380 | 261059
15 | 58:00.60 | 3:14.15 | 261060 | 275624
16 | 61:15.00 | 2:55.25 | 275625 | 288774

Характеристики диапазона извлечения и сообщения об ошибках

Выбранный диапазон

Имя файла D:\Igor(F)\Раздачи Торент\Evanescence 2006 The Open Door\Evanescence – The open door.wav

Пиковый уровень 99.9 %
Качество диапазона 99.9 %
CRC копии F5C22286
Копирование… OK

Ошибок не произошло

AccurateRip: сводка

Трек 1 точное извлечение (доверие 2) [92FF6B2D]
Трек 2 точное извлечение (доверие 2) [4AD29ED4]
Трек 3 точное извлечение (доверие 2) [28588104]
Трек 4 точное извлечение (доверие 3) [31F010DF]
Трек 5 точное извлечение (доверие 2) [4102A64D]
Трек 6 точное извлечение (доверие 2) [E42109E4]
Трек 7 точное извлечение (доверие 2) [0FDB02E3]
Трек 8 точное извлечение (доверие 2) [30D8D22A]
Трек 9 точное извлечение (доверие 2) [A1D121D6]
Трек 10 точное извлечение (доверие 2) [926A44DE]
Трек 11 точное извлечение (доверие 2) [13997EC9]
Трек 12 точное извлечение (доверие 2) [A04AD83F]
Трек 13 точное извлечение (доверие 2) [1250B348]
Трек 14 точное извлечение (доверие 2) [D49E9B96]
Трек 15 точное извлечение (доверие 2) [323F99E7]
Трек 16 точное извлечение (доверие 2) [7C3EA2E6]

Все треки извлечены точно

Конец отчёта

REM GENRE Rock
REM DATE 2006
REM DISCID DC0F0A10
REM COMMENT “ExactAudioCopy v0.99pb5”
PERFORMER “Evanescence”
TITLE “The open door”
FILE “Evanescence – The open door.wav” WAVE
TRACK 01 AUDIO
TITLE “Sweet sacrifice”
PERFORMER “Evanescence”
FLAGS DCP
INDEX 01 00:00:00
TRACK 02 AUDIO
TITLE “Call me when you’re sober”
PERFORMER “Evanescence”
FLAGS DCP
INDEX 01 03:05:55
TRACK 03 AUDIO
TITLE “Weight of the world”
PERFORMER “Evanescence”
FLAGS DCP
INDEX 01 06:40:30
TRACK 04 AUDIO
TITLE “Lithium”
PERFORMER “Evanescence”
FLAGS DCP
INDEX 01 10:18:30
TRACK 05 AUDIO
TITLE “Cloud nine”
PERFORMER “Evanescence”
FLAGS DCP
INDEX 01 14:02:35
TRACK 06 AUDIO
TITLE “Snow white queen”
PERFORMER “Evanescence”
FLAGS DCP
INDEX 01 18:24:50
TRACK 07 AUDIO
TITLE “Lacrymosa”
PERFORMER “Evanescence”
FLAGS DCP
INDEX 01 22:45:65
TRACK 08 AUDIO
TITLE “Like you”
PERFORMER “Evanescence”
FLAGS DCP
INDEX 01 26:23:25
TRACK 09 AUDIO
TITLE “Lose control”
PERFORMER “Evanescence”
FLAGS DCP
INDEX 01 30:41:65
TRACK 10 AUDIO
TITLE “The only one”
PERFORMER “Evanescence”
FLAGS DCP
INDEX 01 35:31:65
TRACK 11 AUDIO
TITLE “Your star”
PERFORMER “Evanescence”
FLAGS DCP
INDEX 01 40:12:05
TRACK 12 AUDIO
TITLE “All that I’m living for”
PERFORMER “Evanescence”
FLAGS DCP
INDEX 01 44:55:25
TRACK 13 AUDIO
TITLE “Good enough”
PERFORMER “Evanescence”
FLAGS DCP
INDEX 01 48:42:60
TRACK 14 AUDIO
TITLE “Call me when you’re sober (acoustic version)”
PERFORMER “Evanescence”
FLAGS DCP
INDEX 01 54:18:30
TRACK 15 AUDIO
TITLE “Going under (live acoustic version)”
PERFORMER “Evanescence”
FLAGS DCP
INDEX 01 58:00:60
TRACK 16 AUDIO
TITLE “Heart shaped box (live acoustic version)”
PERFORMER “Evanescence”
FLAGS DCP
INDEX 01 61:15:00


Leave a Reply

Your email address will not be published. Required fields are marked *

This site uses Akismet to reduce spam. Learn how your comment data is processed.