Evanescence – The Open Door (Japanese Edition)




No Cover available

Artist: Evanescence
Year: 2006
Genre: Metal
Notes: Discogs
Add. Notes: Japanese Edition
Watch Songs on: YouTube
Cover incl.: Yes
Encoder: FLAC
Bitrate: ~1000 kBit/s (44.1 kHz/16 Bit/s)
Log & Cue incl.: Yes/Yes
Size: 606,9 MB
Password: “slam” (without ” “)


All Downloads/Hosters are compatible

Download 1
KatFile.com
Turbobit.net
Rapidgator.net
FileFactory.com
Download 2
KatFile.com
Turbobit.net
Rapidgator.net
FileFactory.com

Tracklist:

1 Sweet Sacrifice 3:05
2 Call Me When You're Sober 3:34
3 Weight Of The World 3:37
4 Lithium 3:44
5 Cloud Nine 4:22
6 Snow White Queen 4:21
7 Lacrymosa 3:35
8 Like You 4:16
9 Lose Control 4:49
10 The Only One 4:40
11 Your Star 4:43
12 All That I'm Living For 3:47
13 Good Enough 5:31

Bonus Track
14 Call Me When You're Sober (Acoustic Version) 3:39

EAC-Log, CUE-Sheed & NFO:

Click to open spoiler
Exact Audio Copy V0.99 prebeta 5 from 4. May 2009

EAC extraction logfile from 13. August 2010, 18:22

Evanescence / The Open Door

Used drive : ASUS DRW-1608P3S Adapter: 0 ID: 0

Read mode : Secure
Utilize accurate stream : Yes
Defeat audio cache : Yes
Make use of C2 pointers : No

Read offset correction : 48
Overread into Lead-In and Lead-Out : No
Fill up missing offset samples with silence : Yes
Delete leading and trailing silent blocks : No
Null samples used in CRC calculations : Yes
Used interface : Installed external ASPI interface
Gap handling : Appended to previous track

Used output format : User Defined Encoder
Selected bitrate : 128 kBit/s
Quality : High
Add ID3 tag : No
Command line compressor : C:\Program Files\Foobar2000\encoders\flac.exe
Additional command line options : -8 -V -T “ARTIST=%a” -T “TITLE=%t” -T “ALBUM=%g” -T “DATE=%y” -T “TRACKNUMBER=%n” -T “GENRE=%m” -T “COMMENT=EAC FLAC -8” %s

TOC of the extracted CD

Track | Start | Length | Start sector | End sector
———————————————————
1 | 0:00.00 | 3:05.40 | 0 | 13914
2 | 3:05.40 | 3:34.53 | 13915 | 30017
3 | 6:40.18 | 3:37.67 | 30018 | 46359
4 | 10:18.10 | 3:44.12 | 46360 | 63171
5 | 14:02.22 | 4:22.14 | 63172 | 82835
6 | 18:24.36 | 4:22.55 | 82836 | 102540
7 | 22:47.16 | 3:37.35 | 102541 | 118850
8 | 26:24.51 | 4:16.73 | 118851 | 138123
9 | 30:41.49 | 4:49.72 | 138124 | 159870
10 | 35:31.46 | 4:40.18 | 159871 | 180888
11 | 40:11.64 | 4:43.20 | 180889 | 202133
12 | 44:55.09 | 3:48.50 | 202134 | 219283
13 | 48:43.59 | 5:31.57 | 219284 | 244165
14 | 54:15.41 | 3:39.13 | 244166 | 260603

Track 1

Filename V:\ћузыка (вата)\Evanescence – The Open Door[Japanese Edition]\01.Evanescence-Sweet_Sacrifice.wav

Pre-gap length 0:00:02.00

Peak level 96.6 %
Track quality 100.0 %
Test CRC 5BD43B97
Copy CRC 5BD43B97
Cannot be verified as accurate (confidence 3) [93C755D2], AccurateRip returned [7D2070AE]
Copy OK

Track 2

Filename V:\ћузыка (вата)\Evanescence – The Open Door[Japanese Edition]\02.Evanescence-Call_Me_When_You’re_Sober.wav

Peak level 96.6 %
Track quality 100.0 %
Test CRC 7EA01901
Copy CRC 7EA01901
Cannot be verified as accurate (confidence 3) [ED8092AF], AccurateRip returned [19298B8E]
Copy OK

Track 3

Filename V:\ћузыка (вата)\Evanescence – The Open Door[Japanese Edition]\03.Evanescence-Weight_Of_The_World.wav

Peak level 96.6 %
Track quality 100.0 %
Test CRC 9B565EFC
Copy CRC 9B565EFC
Cannot be verified as accurate (confidence 3) [8FA3A43B], AccurateRip returned [2875B372]
Copy OK

Track 4

Filename V:\ћузыка (вата)\Evanescence – The Open Door[Japanese Edition]\04.Evanescence-Lithium.wav

Peak level 96.6 %
Track quality 100.0 %
Test CRC D40CEF78
Copy CRC D40CEF78
Cannot be verified as accurate (confidence 3) [29D57BAF], AccurateRip returned [19B89E8C]
Copy OK

Track 5

Filename V:\ћузыка (вата)\Evanescence – The Open Door[Japanese Edition]\05.Evanescence-Cloud_Nine.wav

Peak level 96.6 %
Track quality 100.0 %
Test CRC B1225344
Copy CRC B1225344
Cannot be verified as accurate (confidence 3) [71644562], AccurateRip returned [7A47AEAC]
Copy OK

Track 6

Filename V:\ћузыка (вата)\Evanescence – The Open Door[Japanese Edition]\06.Evanescence-Snow_White_Queen.wav

Peak level 96.6 %
Track quality 100.0 %
Test CRC DFCB09C4
Copy CRC DFCB09C4
Cannot be verified as accurate (confidence 3) [262652E6], AccurateRip returned [3D3B1377]
Copy OK

Track 7

Filename V:\ћузыка (вата)\Evanescence – The Open Door[Japanese Edition]\07.Evanescence-Lacrymosa.wav

Pre-gap length 0:00:01.44

Peak level 96.6 %
Track quality 99.9 %
Test CRC 975AE345
Copy CRC 975AE345
Cannot be verified as accurate (confidence 3) [B1B13C30], AccurateRip returned [6FBDE082]
Copy OK

Track 8

Filename V:\ћузыка (вата)\Evanescence – The Open Door[Japanese Edition]\08.Evanescence-Like_You.wav

Pre-gap length 0:00:01.45

Peak level 96.6 %
Track quality 100.0 %
Test CRC A183E912
Copy CRC A183E912
Cannot be verified as accurate (confidence 3) [AC80B9B1], AccurateRip returned [9A0420FD]
Copy OK

Track 9

Filename V:\ћузыка (вата)\Evanescence – The Open Door[Japanese Edition]\09.Evanescence-Lose_Control.wav

Peak level 96.6 %
Track quality 100.0 %
Test CRC A245A551
Copy CRC A245A551
Cannot be verified as accurate (confidence 3) [15F6B3DD], AccurateRip returned [D507C345]
Copy OK

Track 10

Filename V:\ћузыка (вата)\Evanescence – The Open Door[Japanese Edition]\10.Evanescence-The_Only_One.wav

Peak level 96.6 %
Track quality 99.9 %
Test CRC FAFB8E75
Copy CRC FAFB8E75
Cannot be verified as accurate (confidence 3) [DEA50125], AccurateRip returned [4C6E3215]
Copy OK

Track 11

Filename V:\ћузыка (вата)\Evanescence – The Open Door[Japanese Edition]\11.Evanescence-Your_Star.wav

Peak level 96.6 %
Track quality 99.9 %
Test CRC 1A46BD10
Copy CRC 1A46BD10
Cannot be verified as accurate (confidence 3) [0D39EB71], AccurateRip returned [3C15342A]
Copy OK

Track 12

Filename V:\ћузыка (вата)\Evanescence – The Open Door[Japanese Edition]\12.Evanescence-All_That_I’m_Living_For.wav

Peak level 96.6 %
Track quality 100.0 %
Test CRC B4D73834
Copy CRC B4D73834
Cannot be verified as accurate (confidence 3) [F7AB1823], AccurateRip returned [757D7555]
Copy OK

Track 13

Filename V:\ћузыка (вата)\Evanescence – The Open Door[Japanese Edition]\13.Evanescence-Good_Enough.wav

Pre-gap length 0:00:01.19

Peak level 96.5 %
Track quality 100.0 %
Test CRC F04244DD
Copy CRC F04244DD
Cannot be verified as accurate (confidence 3) [BB565717], AccurateRip returned [A8C73BFF]
Copy OK

Track 14

Filename V:\ћузыка (вата)\Evanescence – The Open Door[Japanese Edition]\14.Evanescence-Call_Me_When_You’re_Sober_(Acoustic_Version).wav

Peak level 88.0 %
Track quality 99.9 %
Test CRC BC721FBC
Copy CRC BC721FBC
Cannot be verified as accurate (confidence 3) [77BC2FA9], AccurateRip returned [9143F4AA]
Copy OK

No tracks could be verified as accurate
You may have a different pressing from the one(s) in the database

No errors occurred

End of status report

REM GENRE Metal
REM DATE 2006
REM DISCID BD0D920E
REM COMMENT “ExactAudioCopy v0.99pb5”
PERFORMER “Evanescence”
TITLE “The Open Door [Japanese Edition]”
FILE “01.Evanescence-Sweet Sacrifice.wav” WAVE
TRACK 01 AUDIO
TITLE “Sweet Sacrifice”
PERFORMER “Evanescence”
FLAGS DCP
INDEX 01 00:00:00
FILE “02.Evanescence-Call Me When You’re Sober.wav” WAVE
TRACK 02 AUDIO
TITLE “Call Me When You’re Sober”
PERFORMER “Evanescence”
FLAGS DCP
INDEX 01 00:00:00
FILE “03.Evanescence-Weight Of The World.wav” WAVE
TRACK 03 AUDIO
TITLE “Weight Of The World”
PERFORMER “Evanescence”
FLAGS DCP
INDEX 01 00:00:00
FILE “04.Evanescence-Lithium.wav” WAVE
TRACK 04 AUDIO
TITLE “Lithium”
PERFORMER “Evanescence”
FLAGS DCP
INDEX 01 00:00:00
FILE “05.Evanescence-Cloud Nine.wav” WAVE
TRACK 05 AUDIO
TITLE “Cloud Nine”
PERFORMER “Evanescence”
FLAGS DCP
INDEX 01 00:00:00
FILE “06.Evanescence-Snow White Queen.wav” WAVE
TRACK 06 AUDIO
TITLE “Snow White Queen”
PERFORMER “Evanescence”
FLAGS DCP
INDEX 01 00:00:00
TRACK 07 AUDIO
TITLE “Lacrymosa”
PERFORMER “Evanescence”
FLAGS DCP
INDEX 00 04:21:11
FILE “07.Evanescence-Lacrymosa.wav” WAVE
INDEX 01 00:00:00
TRACK 08 AUDIO
TITLE “Like You”
PERFORMER “Evanescence”
FLAGS DCP
INDEX 00 03:35:65
FILE “08.Evanescence-Like You.wav” WAVE
INDEX 01 00:00:00
FILE “09.Evanescence-Lose Control.wav” WAVE
TRACK 09 AUDIO
TITLE “Lose Control”
PERFORMER “Evanescence”
FLAGS DCP
INDEX 01 00:00:00
FILE “10.Evanescence-The Only One.wav” WAVE
TRACK 10 AUDIO
TITLE “The Only One”
PERFORMER “Evanescence”
FLAGS DCP
INDEX 01 00:00:00
FILE “11.Evanescence-Your Star.wav” WAVE
TRACK 11 AUDIO
TITLE “Your Star”
PERFORMER “Evanescence”
FLAGS DCP
INDEX 01 00:00:00
FILE “12.Evanescence-All That I’m Living For.wav” WAVE
TRACK 12 AUDIO
TITLE “All That I’m Living For”
PERFORMER “Evanescence”
FLAGS DCP
INDEX 01 00:00:00
TRACK 13 AUDIO
TITLE “Good Enough”
PERFORMER “Evanescence”
FLAGS DCP
INDEX 00 03:47:31
FILE “13.Evanescence-Good Enough.wav” WAVE
INDEX 01 00:00:00
FILE “14.Evanescence-Call Me When You’re Sober (Acoustic Version).wav” WAVE
TRACK 14 AUDIO
TITLE “Call Me When You’re Sober (Acoustic Version)”
PERFORMER “Evanescence”
FLAGS DCP
INDEX 01 00:00:00


0

Publication author

offline 7 hours

Chaos

3
Comments: 4Publics: 3360Registration: 02-02-2019
Spread the Download

Leave a Reply

Your email address will not be published. Required fields are marked *

Enter the text from the image below
 

This site uses Akismet to reduce spam. Learn how your comment data is processed.