Evanescence – Origin




No Cover available

Artist: Evanescence
Year: 2000
Genre: Rock
Notes: Discogs
Add. Notes:
Watch Songs on: YouTube
Cover incl.: Yes
Encoder: FLAC
Bitrate: ~900 kBit/s (44.1 kHz/16 Bit/s)
Log & Cue incl.: Yes/Yes
Size: 304,3 MB
Password: “slam” (without ” “)


All Downloads/Hosters are compatible

Download 1
KatFile.com
Turbobit.net
Rapidgator.net
FileFactory.com
Download 2
KatFile.com
Turbobit.net
Rapidgator.net
FileFactory.com

Tracklist:

1 Origin 0:35
2 Whisper 3:56
3 Imaginary 3:31
4 My Immortal 4:26
5 Where Will You Go 3:47
6 Field Of Innocence 5:13
7 Even In Death 4:09
8 Anywhere 6:03
9 Lies 3:49
10 Away From Me 3:30
11 Eternal 7:22

EAC-Log, CUE-Sheed & NFO:

Click to open spoiler
EAC extraction logfile from 31. August 2006, 20:39 for CD
Evanescence / Origin

Used drive : LITE-ON DVDRW LDW-851S Adapter: 1 ID: 0
Read mode : Secure with NO C2, accurate stream, disable cache
Read offset correction : 12
Overread into Lead-In and Lead-Out : No

Used output format : C:\Program Files\FLAC\flac.exe (User Defined Encoder)
128 kBit/s
Additional command line options : -V -8 -T “artist=%a” -T “title=%t” -T “album=%g” -T “date=%y” -T “tracknumber=%n” -T “genre=%m” %s

Other options :
Fill up missing offset samples with silence : Yes
Delete leading and trailing silent blocks : No
Native Win32 interface for Win NT & 2000

Track 1
Filename C:\Music\Evanescence – Origin\01. Evanescence – Origin.wav

Pre-gap length 0:00:38.57

Peak level 98.8 %
Track quality 100.0 %
Test CRC E2C5DCB8
Copy CRC E2C5DCB8
Copy OK

Track 2
Filename C:\Music\Evanescence – Origin\02. Evanescence – Whisper.wav

Peak level 98.8 %
Track quality 99.9 %
Test CRC 71F77D5E
Copy CRC 71F77D5E
Copy OK

Track 3
Filename C:\Music\Evanescence – Origin\03. Evanescence – Imaginary.wav

Pre-gap length 0:00:01.41

Peak level 98.8 %
Track quality 100.0 %
Test CRC 03F19D0E
Copy CRC 03F19D0E
Copy OK

Track 4
Filename C:\Music\Evanescence – Origin\04. Evanescence – My Immortal.wav

Pre-gap length 0:00:01.76

Peak level 98.8 %
Track quality 100.0 %
Test CRC 2A0496BB
Copy CRC 2A0496BB
Copy OK

Track 5
Filename C:\Music\Evanescence – Origin\05. Evanescence – Where Will You Go.wav

Pre-gap length 0:00:02.05

Peak level 98.8 %
Track quality 99.9 %
Test CRC 84713187
Copy CRC 84713187
Copy OK

Track 6
Filename C:\Music\Evanescence – Origin\06. Evanescence – Field of Innocence.wav

Pre-gap length 0:00:01.96

Peak level 98.8 %
Track quality 100.0 %
Test CRC 80F235CC
Copy CRC 80F235CC
Copy OK

Track 7
Filename C:\Music\Evanescence – Origin\07. Evanescence – Even in Death.wav

Pre-gap length 0:00:00.86

Peak level 98.8 %
Track quality 100.0 %
Test CRC FD2677B6
Copy CRC FD2677B6
Copy OK

Track 8
FFilename C:\Music\Evanescence – Origin\08. Evanescence – Anywhere.wav

Pre-gap length 0:00:01.54

Peak level 98.8 %
Track quality 100.0 %
Test CRC 77D44688
Copy CRC 77D44688
Copy OK

Track 9
Filename C:\Music\Evanescence – Origin\09. Evanescence – Lies.wav

Pre-gap length 0:00:42.60

Peak level 98.8 %
Track quality 100.0 %
Test CRC 9E5A644A
Copy CRC 9E5A644A
Copy OK

Track 10
Filename C:\Music\Evanescence – Origin\10. Evanescence – Away From Me.wav

Pre-gap length 0:00:04.93

Peak level 98.8 %
Track quality 100.0 %
Test CRC 076D1C11
Copy CRC 076D1C11
Copy OK

Track 11
Filename C:\Music\Evanescence – Origin\11. Evanescence – Eternal.wav

Peak level 100.0 %
Track quality 100.0 %
Test CRC 3B960B9A
Copy CRC 3B960B9A
Copy OK

No errors occured

End of status report

REM GENRE Gothic Rock
REM DATE 2000
REM DISCID 8A0AE30B
REM COMMENT “ExactAudioCopy v0.95b4”
PERFORMER “Evanescence”
TITLE “Origin”
FILE “01 – Origin.wav” WAVE
TRACK 01 AUDIO
TITLE “Origin”
PERFORMER “Evanescence”
PREGAP 00:36:43
INDEX 01 00:00:00
FILE “02 – Whisper.wav” WAVE
TRACK 02 AUDIO
TITLE “Whisper”
PERFORMER “Evanescence”
INDEX 01 00:00:00
TRACK 03 AUDIO
TITLE “Imaginary”
PERFORMER “Evanescence”
INDEX 00 03:55:25
FILE “03 – Imaginary.wav” WAVE
INDEX 01 00:00:00
TRACK 04 AUDIO
TITLE “My Immortal”
PERFORMER “Evanescence”
INDEX 00 03:30:12
FILE “04 – My Immortal.wav” WAVE
INDEX 01 00:00:00
TRACK 05 AUDIO
TITLE “Where Will You Go”
PERFORMER “Evanescence”
INDEX 00 04:24:25
FILE “05 – Where Will You Go.wav” WAVE
INDEX 01 00:00:00
TRACK 06 AUDIO
TITLE “Field Of Innocence”
PERFORMER “Evanescence”
INDEX 00 03:45:63
FILE “06 – Field Of Innocence.wav” WAVE
INDEX 01 00:00:00
TRACK 07 AUDIO
TITLE “Even In Death”
PERFORMER “Evanescence”
INDEX 00 05:12:53
FILE “07 – Even In Death.wav” WAVE
INDEX 01 00:00:00
TRACK 08 AUDIO
TITLE “Anywhere”
PERFORMER “Evanescence”
INDEX 00 04:07:39
FILE “08 – Anywhere.wav” WAVE
INDEX 01 00:00:00
TRACK 09 AUDIO
TITLE “Lies”
PERFORMER “Evanescence”
INDEX 00 05:21:02
FILE “09 – Lies.wav” WAVE
INDEX 01 00:00:00
TRACK 10 AUDIO
TITLE “Away From Me”
PERFORMER “Evanescence”
INDEX 00 03:45:01
FILE “10 – Away From Me.wav” WAVE
INDEX 01 00:00:00
FILE “11 – Eternal.wav” WAVE
TRACK 11 AUDIO
TITLE “Eternal”
PERFORMER “Evanescence”
INDEX 01 00:00:00


Leave a Reply

Your email address will not be published. Required fields are marked *

Enter the text from the image below
 

This site uses Akismet to reduce spam. Learn how your comment data is processed.