Evanescence – Fallen (Japanese Edition)




No Cover available

Artist: Evanescence
Year: 2003
Genre: Rock
Notes: Discogs
Add. Notes: Japanese Edition
Watch Songs on: YouTube
Cover incl.: Yes
Encoder: FLAC
Bitrate: ~1000 kBit/s (44.1 kHz/16 Bit/s)
Log & Cue incl.: Yes/Yes
Size: 553,3 MB
Password: “slam” (without ” “)


All Downloads/Hosters are compatible

Download 1
KatFile.com
Turbobit.net
Rapidgator.net
FileFactory.com
Download 2
KatFile.com
Turbobit.net
Rapidgator.net
FileFactory.com

Tracklist:

1 Going Under 3:35
2 Bring Me To Life 3:58
3 Everybody's Fool 3:16
4 My Immortal 4:24
5 Haunted 3:06
6 Tourniquet 4:38
7 Imaginary 4:17
8 Taking Over Me 3:50
9 Hello 3:40
10 My Last Breath 4:08
11 Whisper 5:27

Bonus Track
12 Farther Away 3:58

EAC-Log, CUE-Sheed & NFO:

Click to open spoiler
Exact Audio Copy V0.99 prebeta 4 from 23. January 2008

EAC extraction logfile from 8. October 2010, 16:38

Evanescence / Fallen

Used drive : ASUS DRW-1612BL Adapter: 0 ID: 0

Read mode : Secure
Utilize accurate stream : Yes
Defeat audio cache : Yes
Make use of C2 pointers : No

Read offset correction : 6
Overread into Lead-In and Lead-Out : No
Fill up missing offset samples with silence : Yes
Delete leading and trailing silent blocks : No
Null samples used in CRC calculations : Yes
Used interface : Installed external ASPI interface

Used output format : User Defined Encoder
Selected bitrate : 768 kBit/s
Quality : High
Add ID3 tag : No
Command line compressor : C:\Program Files (x86)\Exact Audio Copy\Flac\flac.exe
Additional command line options : -6 -V -T “ARTIST=%a” -T “TITLE=%t” -T “ALBUM=%g” -T “DATE=%y” -T “TRACKNUMBER=%n” -T “GENRE=%m” -T “COMMENT=%e” %s -o %d

TOC of the extracted CD

Track | Start | Length | Start sector | End sector
———————————————————
1 | 0:00.00 | 3:35.00 | 0 | 16124
2 | 3:35.00 | 3:57.13 | 16125 | 33912
3 | 7:32.13 | 3:16.00 | 33913 | 48612
4 | 10:48.13 | 4:24.07 | 48613 | 68419
5 | 15:12.20 | 3:06.58 | 68420 | 82427
6 | 18:19.03 | 4:38.05 | 82428 | 103282
7 | 22:57.08 | 4:17.40 | 103283 | 122597
8 | 27:14.48 | 3:49.62 | 122598 | 139834
9 | 31:04.35 | 3:40.38 | 139835 | 156372
10 | 34:44.73 | 4:07.27 | 156373 | 174924
11 | 38:52.25 | 5:28.33 | 174925 | 199557
12 | 44:20.58 | 3:58.70 | 199558 | 217477
13 | 50:51.53 | 23:41.60 | 228878 | 335512

Range status and errors

Selected range

Filename E:\My Doom\Evanescence – Fallen.wav

Peak level 99.8 %
Range quality 100.0 %
Test CRC C91EB570
Copy CRC C91EB570
Copy OK

No errors occurred

AccurateRip summary

Track 1 accurately ripped (confidence 5) [30F807D4]
Track 2 accurately ripped (confidence 5) [CBF2C26F]
Track 3 accurately ripped (confidence 5) [F07A2A98]
Track 4 accurately ripped (confidence 5) [84EC647E]
Track 5 accurately ripped (confidence 5) [0D1EA4F6]
Track 6 accurately ripped (confidence 5) [F6AC4330]
Track 7 accurately ripped (confidence 5) [E83611EE]
Track 8 accurately ripped (confidence 5) [66F995C0]
Track 9 accurately ripped (confidence 5) [B24745D8]
Track 10 accurately ripped (confidence 5) [EAF687CA]
Track 11 accurately ripped (confidence 5) [DCEAE9D6]
Track 12 accurately ripped (confidence 4) [DC448605]

All tracks accurately ripped

End of status report

REM GENRE Rock
REM DATE 2003
REM DISCID A511790D
REM COMMENT “ExactAudioCopy v0.99pb4”
PERFORMER “Evanescence”
TITLE “Fallen”
FILE “Evanescence – Fallen.flac” WAVE
TRACK 01 AUDIO
TITLE “Going Under”
PERFORMER “Evanescence”
INDEX 01 00:00:00
TRACK 02 AUDIO
TITLE “Bring Me To Life”
PERFORMER “Evanescence”
INDEX 01 03:35:00
TRACK 03 AUDIO
TITLE “Everybody’s Fool”
PERFORMER “Evanescence”
INDEX 00 07:31:10
INDEX 01 07:32:13
TRACK 04 AUDIO
TITLE “My Immortal”
PERFORMER “Evanescence”
INDEX 01 10:48:13
TRACK 05 AUDIO
TITLE “Haunted”
PERFORMER “Evanescence”
INDEX 00 15:10:73
INDEX 01 15:12:20
TRACK 06 AUDIO
TITLE “Tourniquet”
PERFORMER “Evanescence”
INDEX 01 18:19:03
TRACK 07 AUDIO
TITLE “Imaginary”
PERFORMER “Evanescence”
INDEX 01 22:57:08
TRACK 08 AUDIO
TITLE “Taking Over Me”
PERFORMER “Evanescence”
INDEX 01 27:14:48
TRACK 09 AUDIO
TITLE “Hello”
PERFORMER “Evanescence”
INDEX 01 31:04:35
TRACK 10 AUDIO
TITLE “My Last Breath”
PERFORMER “Evanescence”
INDEX 01 34:44:73
TRACK 11 AUDIO
TITLE “Whisper”
PERFORMER “Evanescence”
INDEX 01 38:52:25
TRACK 12 AUDIO
TITLE “Farther Away”
PERFORMER “Evanescence”
INDEX 00 44:19:68
INDEX 01 44:20:58


0

Publication author

offline 7 days

Chaos

3
Comments: 4Publics: 3565Registration: 02-02-2019
Spread the Download

Leave a Reply

Your email address will not be published. Required fields are marked *

Enter the text from the image below
 

This site uses Akismet to reduce spam. Learn how your comment data is processed.