Evanescence – Fallen




No Cover available

Artist: Evanescence
Year: 2004
Genre: Metal
Notes: Discogs
Add. Notes:
Watch Songs on: YouTube
Cover incl.: Yes
Encoder: FLAC
Bitrate: ~900 kBit/s (44.1 kHz/16 Bit/s)
Log & Cue incl.: Yes/Yes
Size: 330,1 MB
Password: “slam” (without ” “)


All Downloads/Hosters are compatible

Download 1
KatFile.com
Turbobit.net
FileFactory.com
Rapidgator.net
Download 2
KatFile.com
Turbobit.net
FileFactory.com
Rapidgator.net

Tracklist:

1 Going Under 3:35
2 Bring Me To Life 3:57
3 Everybody's Fool 3:16
4 My Immortal 4:24
5 Haunted 3:06
6 Tourniquet 4:38
7 Imaginary 4:17
8 Taking Over Me 3:50
9 Hello 3:40
10 My Last Breath 4:07
11 Whisper 5:27

EAC-Log, CUE-Sheed & NFO:

Click to open spoiler
Exact Audio Copy V1.0 beta 3 from 29. August 2011

Отчёт EAC об извлечении, выполненном 17. апреля 2014, 13:17

Evanescence / Fallen

Дисковод: PLEXTOR DVDR PX-760A Adapter: 3 ID: 1

Режим чтения : Достоверность
Использование точного потока : Да
Отключение кэша аудио : Да
Использование указателей C2 : Нет

Коррекция смещения при чтении : 30
Способность читать области Lead-in и Lead-out : Нет
Заполнение пропущенных сэмплов тишиной : Да
Удаление блоков с тишиной в начале и конце : Нет
При вычислениях CRC использовались нулевые сэмплы : Да
Интерфейс : Встроенный Win32-интерфейс для Win NT/2000

Выходной формат : Пользовательский кодировщик
Выбранный битрейт : 1024 kBit/s
Качество : Высокий
Добавление ID3-тега : Нет
Утилита сжатия : C:\Program Files (x86)\Exact Audio Copy\Flac\flac.exe
Дополнительные параметры : -V -8 -T “Genre=%genre%” -T “Artist=%artist%” -T “Title=%title%” -T “Album=%albumtitle%” -T “Date=%year%” -T “Tracknumber=%tracknr%” -T “Comment=%comment%” %source%

TOC извлечённого CD

Трек | Старт | Длительность | Начальный сектор | Конечный сектор
———————————————————————
1 | 0:00.00 | 3:34.71 | 0 | 16120
2 | 3:34.71 | 3:57.22 | 16121 | 33917
3 | 7:32.18 | 3:15.66 | 33918 | 48608
4 | 10:48.09 | 4:24.16 | 48609 | 68424
5 | 15:12.25 | 3:06.49 | 68425 | 82423
6 | 18:18.74 | 4:38.05 | 82424 | 103278
7 | 22:57.04 | 4:17.39 | 103279 | 122592
8 | 27:14.43 | 3:49.73 | 122593 | 139840
9 | 31:04.41 | 3:40.27 | 139841 | 156367
10 | 34:44.68 | 4:07.25 | 156368 | 174917
11 | 38:52.18 | 5:30.02 | 174918 | 199669
12 | 44:22.20 | 4:33.27 | 199670 | 220171

Характеристики диапазона извлечения и сообщения об ошибках

Выбранный диапазон

Имя файла U:\MUZzON\CD\FLAC\Evanescence\Fallen\Evanescence – Fallen.wav

Пиковый уровень 99.8 %
Скорость извлечения 7.9 X
Качество диапазона 100.0 %
CRC теста CC46A255
CRC копии CC46A255
Копирование… OK

Ошибок не произошло

AccurateRip: сводка

Трек 1 : извлечено точно (доверие 20) [9DBC720F] (AR v2)
Трек 2 : извлечено точно (доверие 20) [B5C1FDB8] (AR v2)
Трек 3 : извлечено точно (доверие 20) [7A89C024] (AR v2)
Трек 4 : извлечено точно (доверие 21) [5CA01E9A] (AR v2)
Трек 5 : извлечено точно (доверие 20) [D70CCF5C] (AR v2)
Трек 6 : извлечено точно (доверие 20) [10D05397] (AR v2)
Трек 7 : извлечено точно (доверие 20) [B71F6E70] (AR v2)
Трек 8 : извлечено точно (доверие 20) [8AFEB6C1] (AR v2)
Трек 9 : извлечено точно (доверие 20) [5232A501] (AR v2)
Трек 10 : извлечено точно (доверие 20) [A92D41CF] (AR v2)
Трек 11 : извлечено точно (доверие 20) [76D3B4E6] (AR v2)
Трек 12 : извлечено точно (доверие 19) [28DA3544] (AR v2)

Все треки извлечены точно

Конец отчёта

==== Контрольная сумма отчёта 135849687DC9C507AF1EB522C1E236E801F919820923FB9ED3A72632771CBED0 ====

REM GENRE “Nu Metal”
REM DATE 2004
REM DISCID 9A0B770C
REM COMMENT “ExactAudioCopy v1.0b3”
PERFORMER “Evanescence”
TITLE “Fallen”
FILE “Evanescence – Fallen.flac” WAVE
TRACK 01 AUDIO
TITLE “Going Under”
PERFORMER “Evanescence”
ISRC USWU30200108
INDEX 01 00:00:00
TRACK 02 AUDIO
TITLE “Bring Me To Life”
PERFORMER “Evanescence”
ISRC USWU30200093
INDEX 01 03:34:71
TRACK 03 AUDIO
TITLE “Everybody’s Fool”
PERFORMER “Evanescence”
ISRC USWU30200106
INDEX 00 07:30:63
INDEX 01 07:32:18
TRACK 04 AUDIO
TITLE “My Immortal”
PERFORMER “Evanescence”
ISRC USWU30200104
INDEX 01 10:48:09
TRACK 05 AUDIO
TITLE “Haunted”
PERFORMER “Evanescence”
ISRC USWU30200109
INDEX 00 15:10:49
INDEX 01 15:12:25
TRACK 06 AUDIO
TITLE “Tourniquet”
PERFORMER “Evanescence”
ISRC USWU30200115
INDEX 00 18:17:58
INDEX 01 18:18:74
TRACK 07 AUDIO
TITLE “Imaginary”
PERFORMER “Evanescence”
ISRC USWU30200111
INDEX 01 22:57:04
TRACK 08 AUDIO
TITLE “Taking Over Me”
PERFORMER “Evanescence”
ISRC USWU30200114
INDEX 00 27:13:42
INDEX 01 27:14:43
TRACK 09 AUDIO
TITLE “Hello”
PERFORMER “Evanescence”
ISRC USWU30200110
INDEX 00 31:03:14
INDEX 01 31:04:41
TRACK 10 AUDIO
TITLE “My Last Breath”
PERFORMER “Evanescence”
ISRC USWU30200113
INDEX 01 34:44:68
TRACK 11 AUDIO
TITLE “Whisper”
PERFORMER “Evanescence”
ISRC USWU30200116
INDEX 01 38:52:18
TRACK 12 AUDIO
TITLE “My Immortal (Band Version)”
PERFORMER “Evanescence”
ISRC USWU30300059
INDEX 00 44:19:43
INDEX 01 44:22:20


Leave a Reply

Your email address will not be published. Required fields are marked *

Enter the text from the image below
 

This site uses Akismet to reduce spam. Learn how your comment data is processed.