Evanescence – Anywhere But Home (Live)




No Cover available

Artist: Evanescence
Year: 2004
Genre: Metal
Notes: Discogs
Add. Notes:
Watch Songs on: YouTube
Cover incl.: No
Encoder: FLAC
Bitrate: ~1000 kBit/s (44.1 kHz/16 Bit/s)
Log & Cue incl.: Yes/Yes
Size: 425,3 MB
Password: “slam” (without ” “)


All Downloads/Hosters are compatible

Download 1
KatFile.com
Turbobit.net
FileFactory.com
Rapidgator.net
Download 2
KatFile.com
Turbobit.net
FileFactory.com
Rapidgator.net

Tracklist:

1 Haunted 4:04
2 Going Under 3:58
3 Taking Over Me 3:57
4 Everybody's Fool 3:40
5 Thoughtless 4:37
6 My Last Breath 3:53
7 Farther Away 5:03
8 Breathe No More 3:34
9 My Immortal 4:38
10 Bring Me To Life 4:44
11 Tourniquet 4:17
12 Imaginary 5:26
13 Whisper 5:45
14 Missing 4:17

EAC-Log, CUE-Sheed & NFO:

Click to open spoiler
Exact Audio Copy V1.0 beta 1 from 15. November 2010

EAC extraction logfile from 7. August 2011, 17:17

Evanescence / Anywhere But Home

Used drive : TSSTcorpCDDVDW SH-S223C Adapter: 3 ID: 0

Read mode : Secure
Utilize accurate stream : Yes
Defeat audio cache : Yes
Make use of C2 pointers : No

Read offset correction : 697
Overread into Lead-In and Lead-Out : No
Fill up missing offset samples with silence : Yes
Delete leading and trailing silent blocks : No
Null samples used in CRC calculations : Yes
Used interface : Native Win32 interface for Win NT & 2000
Gap handling : Appended to previous track

Used output format : User Defined Encoder
Selected bitrate : 1024 kBit/s
Quality : High
Add ID3 tag : No
Command line compressor : C:\Program Files\Exact Audio Copy\Flac\flac.exe
Additional command line options : -V -8 -T “artist=%a” -T “title=%t” -T “album=%g” -T “date=%y” -T “tracknumber=%n” -T “genre=%m” %s

TOC of the extracted CD

Track | Start | Length | Start sector | End sector
———————————————————
1 | 0:00.00 | 4:04.71 | 0 | 18370
2 | 4:04.71 | 3:57.29 | 18371 | 36174
3 | 8:02.25 | 3:57.20 | 36175 | 53969
4 | 11:59.45 | 3:40.14 | 53970 | 70483
5 | 15:39.59 | 4:37.08 | 70484 | 91266
6 | 20:16.67 | 3:53.03 | 91267 | 108744
7 | 24:09.70 | 5:02.47 | 108745 | 131441
8 | 29:12.42 | 3:33.64 | 131442 | 147480
9 | 32:46.31 | 4:38.18 | 147481 | 168348
10 | 37:24.49 | 4:43.57 | 168349 | 189630
11 | 42:08.31 | 4:17.38 | 189631 | 208943
12 | 46:25.69 | 5:25.21 | 208944 | 233339
13 | 51:51.15 | 5:45.58 | 233340 | 259272
14 | 57:36.73 | 4:16.04 | 259273 | 278476

Track 1

Filename E:\EAC\Evanescence – Anywhere But Home – 2004\01 – Haunted.wav

Pre-gap length 0:00:02.00

Peak level 100.0 %
Extraction speed 2.0 X
Track quality 100.0 %
Test CRC 70CE87CB
Copy CRC 70CE87CB
Accurately ripped (confidence 10) [1721BEFC]
Copy OK

Track 2

Filename E:\EAC\Evanescence – Anywhere But Home – 2004\02 – Going Under.wav

Peak level 100.0 %
Extraction speed 2.1 X
Track quality 100.0 %
Test CRC 0EE199FB
Copy CRC 0EE199FB
Accurately ripped (confidence 11) [E8F40D92]
Copy OK

Track 3

Filename E:\EAC\Evanescence – Anywhere But Home – 2004\03 – Taking Over Me.wav

Peak level 100.0 %
Extraction speed 2.1 X
Track quality 100.0 %
Test CRC A0F2B117
Copy CRC A0F2B117
Accurately ripped (confidence 11) [5B858BDB]
Copy OK

Track 4

Filename E:\EAC\Evanescence – Anywhere But Home – 2004\04 – Everybody’s Fool.wav

Peak level 89.4 %
Extraction speed 2.0 X
Track quality 100.0 %
Test CRC 0BFF03EB
Copy CRC 0BFF03EB
Accurately ripped (confidence 11) [FD30146E]
Copy OK

Track 5

Filename E:\EAC\Evanescence – Anywhere But Home – 2004\05 – Thoughtless.wav

Peak level 88.6 %
Extraction speed 2.1 X
Track quality 100.0 %
Test CRC 7BF11E87
Copy CRC 7BF11E87
Accurately ripped (confidence 11) [FB423762]
Copy OK

Track 6

Filename E:\EAC\Evanescence – Anywhere But Home – 2004\06 – My Last Breath.wav

Peak level 89.4 %
Extraction speed 2.1 X
Track quality 100.0 %
Test CRC 29A74778
Copy CRC 29A74778
Accurately ripped (confidence 11) [A234B607]
Copy OK

Track 7

Filename E:\EAC\Evanescence – Anywhere But Home – 2004\07 – Farther Away.wav

Peak level 100.0 %
Extraction speed 2.1 X
Track quality 100.0 %
Test CRC E6BB07B5
Copy CRC E6BB07B5
Accurately ripped (confidence 11) [67CEAC97]
Copy OK

Track 8

Filename E:\EAC\Evanescence – Anywhere But Home – 2004\08 – Breathe No More.wav

Peak level 100.0 %
Extraction speed 1.7 X
Track quality 99.9 %
Test CRC 3B19C32D
Copy CRC 3B19C32D
Accurately ripped (confidence 11) [F528B823]
Copy OK

Track 9

Filename E:\EAC\Evanescence – Anywhere But Home – 2004\09 – My Immortal.wav

Peak level 100.0 %
Extraction speed 2.1 X
Track quality 100.0 %
Test CRC 37971D8C
Copy CRC 37971D8C
Accurately ripped (confidence 11) [A106AA5D]
Copy OK

Track 10

Filename E:\EAC\Evanescence – Anywhere But Home – 2004\10 – Bring Me To Life.wav

Peak level 89.5 %
Extraction speed 2.1 X
Track quality 100.0 %
Test CRC 86AA3348
Copy CRC 86AA3348
Accurately ripped (confidence 11) [7D001471]
Copy OK

Track 11

Filename E:\EAC\Evanescence – Anywhere But Home – 2004\11 – Tourniquet.wav

Peak level 94.0 %
Extraction speed 2.1 X
Track quality 100.0 %
Test CRC 908C093B
Copy CRC 908C093B
Accurately ripped (confidence 11) [0958D0BC]
Copy OK

Track 12

Filename E:\EAC\Evanescence – Anywhere But Home – 2004\12 – Imaginary.wav

Peak level 94.0 %
Extraction speed 2.1 X
Track quality 100.0 %
Test CRC 8ED1819B
Copy CRC 8ED1819B
Accurately ripped (confidence 11) [0D3E0D21]
Copy OK

Track 13

Filename E:\EAC\Evanescence – Anywhere But Home – 2004\13 – Whisper.wav

Peak level 94.0 %
Extraction speed 2.1 X
Track quality 100.0 %
Test CRC 571DBD25
Copy CRC 571DBD25
Accurately ripped (confidence 11) [EA4CC076]
Copy OK

Track 14

Filename E:\EAC\Evanescence – Anywhere But Home – 2004\14 – Missing (Studio Version).wav

Pre-gap length 0:00:02.17

Peak level 99.8 %
Extraction speed 1.8 X
Track quality 99.9 %
Test CRC D6ECA062
Copy CRC D6ECA062
Accurately ripped (confidence 11) [AC31D722]
Copy OK

All tracks accurately ripped

No errors occurred

End of status report

==== Log checksum BB2B746D4B766B4A2FDEC35ADA1CFE1475AC378C08CF5BD37E0D8A898771AC6F ====

REM GENRE “Alternative Metal”
REM DATE 2004
REM DISCID C20E810E
REM COMMENT “ExactAudioCopy v1.0b1”
PERFORMER “Evanescence”
TITLE “Anywhere But Home”
FILE “01 – Haunted.wav” WAVE
TRACK 01 AUDIO
TITLE “Haunted”
PERFORMER “Evanescence”
INDEX 01 00:00:00
FILE “02 – Going Under.wav” WAVE
TRACK 02 AUDIO
TITLE “Going Under”
PERFORMER “Evanescence”
INDEX 01 00:00:00
FILE “03 – Taking Over Me.wav” WAVE
TRACK 03 AUDIO
TITLE “Taking Over Me”
PERFORMER “Evanescence”
INDEX 01 00:00:00
FILE “04 – Everybody’s Fool.wav” WAVE
TRACK 04 AUDIO
TITLE “Everybody’s Fool”
PERFORMER “Evanescence”
INDEX 01 00:00:00
FILE “05 – Thoughtless.wav” WAVE
TRACK 05 AUDIO
TITLE “Thoughtless”
PERFORMER “Evanescence”
INDEX 01 00:00:00
FILE “06 – My Last Breath.wav” WAVE
TRACK 06 AUDIO
TITLE “My Last Breath”
PERFORMER “Evanescence”
INDEX 01 00:00:00
FILE “07 – Farther Away.wav” WAVE
TRACK 07 AUDIO
TITLE “Farther Away”
PERFORMER “Evanescence”
INDEX 01 00:00:00
FILE “08 – Breathe No More.wav” WAVE
TRACK 08 AUDIO
TITLE “Breathe No More”
PERFORMER “Evanescence”
INDEX 01 00:00:00
FILE “09 – My Immortal.wav” WAVE
TRACK 09 AUDIO
TITLE “My Immortal”
PERFORMER “Evanescence”
INDEX 01 00:00:00
FILE “10 – Bring Me To Life.wav” WAVE
TRACK 10 AUDIO
TITLE “Bring Me To Life”
PERFORMER “Evanescence”
INDEX 01 00:00:00
FILE “11 – Tourniquet.wav” WAVE
TRACK 11 AUDIO
TITLE “Tourniquet”
PERFORMER “Evanescence”
INDEX 01 00:00:00
FILE “12 – Imaginary.wav” WAVE
TRACK 12 AUDIO
TITLE “Imaginary”
PERFORMER “Evanescence”
INDEX 01 00:00:00
FILE “13 – Whisper.wav” WAVE
TRACK 13 AUDIO
TITLE “Whisper”
PERFORMER “Evanescence”
INDEX 01 00:00:00
TRACK 14 AUDIO
TITLE “Missing (Studio Version)”
PERFORMER “Evanescence”
INDEX 00 05:43:45
FILE “14 – Missing (Studio Version).wav” WAVE
INDEX 01 00:00:00


0

Publication author

offline 8 hours

Chaos

3
Comments: 4Publics: 3424Registration: 02-02-2019
Spread the Download

Leave a Reply

Your email address will not be published. Required fields are marked *

Enter the text from the image below
 

This site uses Akismet to reduce spam. Learn how your comment data is processed.