Europe – Wings of Tomorrow




No Cover available

Artist: Europe
Year: 1984
Genre: Rock
Notes: Discogs
Add. Notes:
Watch Songs on: YouTube
Cover incl.: Yes
Encoder: FLAC
Bitrate: ~1000 kBit/s (44.1 kHz/16 Bit/s)
Log & Cue incl.: Yes
Size: 272,4 MB
Password: “slam” (without ” “)


All Downloads/Hosters are compatible

Download 1
KatFile.com
Turbobit.net
FileFactory.com
Rapidgator.net
Download 2
KatFile.com
Turbobit.net
FileFactory.com
Rapidgator.net

Tracklist:

1 - Stormwind - 4:28
2 - Scream Of Anger - 4:04
3 - Open Your Heart - 4:08
4 - Treated Bad Again - 3:44
5 - Aphasia - 2:30
6 - Wings Of Tomorrow - 3:57
7 - Wasted Time - 4:07
8 - Lyin' Eyes - 3:45
9 - Dreamer - 4:25
10 - Dance The Night Away - 3:36

EAC-Log, CUE-Sheed & NFO:

Click to open spoiler
Exact Audio Copy V0.99 prebeta 5 from 4. May 2009

Отчёт EAC об извлечении, выполненном 20. сентября 2010, 10:39

Europe / Wings Of Tomorrow [CDEPC 26384]

Дисковод: Optiarc DVD RW AD-7200A Adapter: 1 ID: 0

Режим чтения : Достоверность
Использование точного потока : Да
Отключение кэша аудио : Да
Использование указателей C2 : Нет

Коррекция смещения при чтении : 48
Способность читать области Lead-in и Lead-out : Нет
Заполнение пропущенных сэмплов тишиной : Да
Удаление блоков с тишиной в начале и конце : Нет
При вычислениях CRC использовались нулевые сэмплы : Да
Интерфейс : Встроенный Win32-интерфейс для Win NT/2000

Выходной формат : Пользовательский кодировщик
Выбранный битрейт : 128 kBit/s
Качество : Высокий
Добавление ID3-тэга : Нет
Утилита сжатия : C:\Program Files\Exact Audio Copy\Flac\flac.exe
Дополнительные параметры : -8 -V -T “artist=%a” -T “title=%t” -T “album=%g” -T “date=%y” -T “tracknumber=%n” -T “genre=%m” -T “comment=EAC

TOC извлечённого CD

Трек | Старт | Длительность | Начальный сектор | Конечный сектор
———————————————————————
1 | 0:00.00 | 4:32.17 | 0 | 20416
2 | 4:32.17 | 4:06.33 | 20417 | 38899
3 | 8:38.50 | 4:10.57 | 38900 | 57706
4 | 12:49.32 | 3:46.20 | 57707 | 74676
5 | 16:35.52 | 2:32.48 | 74677 | 86124
6 | 19:08.25 | 3:59.45 | 86125 | 104094
7 | 23:07.70 | 4:10.07 | 104095 | 122851
8 | 27:18.02 | 3:47.03 | 122852 | 139879
9 | 31:05.05 | 4:28.27 | 139880 | 160006
10 | 35:33.32 | 3:36.25 | 160007 | 176231

Характеристики диапазона извлечения и сообщения об ошибках

Выбранный диапазон

Имя файла Y:\Музыка\Europe\1984 Wings Of Tomorrow\Europe – Wings Of Tomorrow [CDEPC 26384].wav

Пиковый уровень 95.4 %
Качество диапазона 100.0 %
CRC копии 76CD6E97
Копирование… OK

Ошибок не произошло

AccurateRip: сводка

Трек 1 точное извлечение (доверие 5) [D97FE4E8]
Трек 2 точное извлечение (доверие 5) [90C3D035]
Трек 3 точное извлечение (доверие 5) [18EDCD63]
Трек 4 точное извлечение (доверие 5) [7B3621EB]
Трек 5 точное извлечение (доверие 5) [A848E55F]
Трек 6 точное извлечение (доверие 5) [A4EE56FB]
Трек 7 точное извлечение (доверие 5) [8D7E77F6]
Трек 8 точное извлечение (доверие 5) [9353C699]
Трек 9 точное извлечение (доверие 5) [439F8B6B]
Трек 10 точное извлечение (доверие 5) [C36ACA2B]

Все треки извлечены точно

Конец отчёта

REM GENRE “Hard ‘n’ Heavy”
REM DATE 1984
REM DISCID 86092D0A
REM COMMENT “ExactAudioCopy v0.99pb5”
PERFORMER “Europe”
TITLE “Wings Of Tomorrow [CDEPC 26384]”
FILE “Europe – Wings Of Tomorrow [CDEPC 26384].flac” WAVE
TRACK 01 AUDIO
TITLE “Stormwind”
PERFORMER “Europe”
INDEX 01 00:00:00
TRACK 02 AUDIO
TITLE “Scream Of Anger”
PERFORMER “Europe”
INDEX 00 04:29:62
INDEX 01 04:32:17
TRACK 03 AUDIO
TITLE “Open Your Heart”
PERFORMER “Europe”
INDEX 00 08:36:65
INDEX 01 08:38:50
TRACK 04 AUDIO
TITLE “Treated Bad Again”
PERFORMER “Europe”
INDEX 00 12:47:07
INDEX 01 12:49:32
TRACK 05 AUDIO
TITLE “Aphasia (instrumental)”
PERFORMER “Europe”
INDEX 00 16:33:57
INDEX 01 16:35:52
TRACK 06 AUDIO
TITLE “Wings Of Tomorrow”
PERFORMER “Europe”
INDEX 00 19:06:17
INDEX 01 19:08:25
TRACK 07 AUDIO
TITLE “Wasted Time”
PERFORMER “Europe”
INDEX 00 23:06:42
INDEX 01 23:07:70
TRACK 08 AUDIO
TITLE “Lyin’ Eyes”
PERFORMER “Europe”
INDEX 00 27:15:65
INDEX 01 27:18:02
TRACK 09 AUDIO
TITLE “Dreamer”
PERFORMER “Europe”
INDEX 00 31:04:10
INDEX 01 31:05:05
TRACK 10 AUDIO
TITLE “Dance The Night Away”
PERFORMER “Europe”
INDEX 00 35:30:62
INDEX 01 35:33:32


Leave a Reply

Your email address will not be published. Required fields are marked *

This site uses Akismet to reduce spam. Learn how your comment data is processed.