Europe – The Final Countdown




No Cover available

Artist: Europe
Year: 1986
Genre: Rock
Notes: Discogs
Add. Notes:
Watch Songs on: YouTube
Cover incl.: Yes
Encoder: FLAC
Bitrate: ~900 kBit/s (44.1 kHz/16 Bit/s)
Log & Cue incl.: Yes
Size: 258,2 MB
Password: “slam” (without ” “)


All Downloads/Hosters are compatible

Download 1
KatFile.com
Turbobit.net
FileFactory.com
Rapidgator.net
Download 2
KatFile.com
Turbobit.net
FileFactory.com
Rapidgator.net

Tracklist:

1 - The Final Countdown - 5:08
2 - Rock The Night - 4:04
3 - Carrie - 4:30
4 - Danger On The Track - 3:45
5 - Ninja - 3:45
6 - Cherokee - 4:12
7 - Time Has Come - 4:00
8 - Heart Of Stone - 3:46
9 - On The Loose - 3:09
10 - Love Chaser - 3:27

EAC-Log, CUE-Sheed & NFO:

Click to open spoiler
Exact Audio Copy V0.99 prebeta 5 from 4. May 2009

Отчёт EAC об извлечении, выполненном 19. октября 2010, 9:32

Europe / The Final Countdown [CDEPC 26808]

Дисковод: Optiarc DVD RW AD-7200A Adapter: 1 ID: 0

Режим чтения : Достоверность
Использование точного потока : Да
Отключение кэша аудио : Да
Использование указателей C2 : Нет

Коррекция смещения при чтении : 48
Способность читать области Lead-in и Lead-out : Нет
Заполнение пропущенных сэмплов тишиной : Да
Удаление блоков с тишиной в начале и конце : Нет
При вычислениях CRC использовались нулевые сэмплы : Да
Интерфейс : Встроенный Win32-интерфейс для Win NT/2000

Выходной формат : Пользовательский кодировщик
Выбранный битрейт : 128 kBit/s
Качество : Высокий
Добавление ID3-тэга : Нет
Утилита сжатия : C:\Program Files\Exact Audio Copy\Flac\flac.exe
Дополнительные параметры : -8 -V -T “artist=%a” -T “title=%t” -T “album=%g” -T “date=%y” -T “tracknumber=%n” -T “genre=%m” -T “comment=EAC

TOC извлечённого CD

Трек | Старт | Длительность | Начальный сектор | Конечный сектор
———————————————————————
1 | 0:00.00 | 5:11.20 | 0 | 23344
2 | 5:11.20 | 4:03.67 | 23345 | 41636
3 | 9:15.12 | 4:30.45 | 41637 | 61931
4 | 13:45.57 | 3:45.58 | 61932 | 78864
5 | 17:31.40 | 3:46.42 | 78865 | 95856
6 | 21:18.07 | 4:13.35 | 95857 | 114866
7 | 25:31.42 | 4:00.70 | 114867 | 132936
8 | 29:32.37 | 3:46.63 | 132937 | 149949
9 | 33:19.25 | 3:08.60 | 149950 | 164109
10 | 36:28.10 | 3:27.52 | 164110 | 179686

Характеристики диапазона извлечения и сообщения об ошибках

Выбранный диапазон

Имя файла Y:\Музыка\Europe\1986 The Final Countdown\Europe – The Final Countdown [CDEPC 26808].wav

Пиковый уровень 82.8 %
Качество диапазона 99.9 %
CRC копии 47EAFDDD
Копирование… OK

Ошибок не произошло

AccurateRip: сводка

Трек 1 точное извлечение (доверие 9) [CCCD1616]
Трек 2 точное извлечение (доверие 7) [1DDA9CCA]
Трек 3 точное извлечение (доверие 9) [5B957B42]
Трек 4 точное извлечение (доверие 7) [36329F7A]
Трек 5 точное извлечение (доверие 7) [EEB69FD5]
Трек 6 точное извлечение (доверие 8) [7B319673]
Трек 7 точное извлечение (доверие 7) [5E83C7E8]
Трек 8 точное извлечение (доверие 8) [4738AE93]
Трек 9 точное извлечение (доверие 7) [B30833C6]
Трек 10 точное извлечение (доверие 6) [5D29F65B]

Все треки извлечены точно

Конец отчёта

REM GENRE “Hard ‘n’ Heavy”
REM DATE 1986
REM DISCID 6D095B0A
REM COMMENT “ExactAudioCopy v0.99pb5”
PERFORMER “Europe”
TITLE “The Final Countdown [CDEPC 26808]”
FILE “Europe – The Final Countdown [CDEPC 26808].flac” WAVE
TRACK 01 AUDIO
TITLE “The Final Countdown”
PERFORMER “Europe”
INDEX 01 00:00:00
TRACK 02 AUDIO
TITLE “Rock The Night”
PERFORMER “Europe”
INDEX 00 05:09:62
INDEX 01 05:11:20
TRACK 03 AUDIO
TITLE “Carrie”
PERFORMER “Europe”
INDEX 01 09:15:12
TRACK 04 AUDIO
TITLE “Danger On The Track”
PERFORMER “Europe”
INDEX 01 13:45:57
TRACK 05 AUDIO
TITLE “Ninja”
PERFORMER “Europe”
INDEX 00 17:31:05
INDEX 01 17:31:40
TRACK 06 AUDIO
TITLE “Cherokee”
PERFORMER “Europe”
INDEX 00 21:17:55
INDEX 01 21:18:07
TRACK 07 AUDIO
TITLE “Time Has Come”
PERFORMER “Europe”
INDEX 00 25:30:70
INDEX 01 25:31:42
TRACK 08 AUDIO
TITLE “Heart Of Stone”
PERFORMER “Europe”
INDEX 01 29:32:37
TRACK 09 AUDIO
TITLE “On The Loose”
PERFORMER “Europe”
INDEX 01 33:19:25
TRACK 10 AUDIO
TITLE “Love Chaser”
PERFORMER “Europe”
INDEX 01 36:28:10


Leave a Reply

Your email address will not be published. Required fields are marked *

This site uses Akismet to reduce spam. Learn how your comment data is processed.